Поиск

(Free Jazz, Free Improvisation) Geerken - Tchicai - Moye: Cassava Balls - 1985, FLAC (tracks+.cue), lossless

Треклист:
Geerken - Tchicai - Moye: Cassava Balls
Жанр: Free Jazz, Free Improvisation
Год выпуска диска: 1985
Производитель диска: England
Label: Golden Years of New Jazz GY 4
Аудио кодек: FLAC
Тип рипа: tracks+.cue + Artwork
Битрейт аудио: lossless
Продолжительность: 1:04:34
Происхождение рипа: собственный рип с оригинального диска.
Треклист:
1. Patriotic poem number one forty years after (07.25)
2. Sawasawa (06.45)
3. Races places faces and asses (08.07)
4. Mohawk (04.35)
5. Mothers (04.51)
6. Marconison (11.14)
7. Cassava snake one pot (06.45)
8. Mikel Black (06.15)
9. Rosy metal (08.37)
Доп. информация:
Hartmut Geerken - piano, prepared piano, percussion, voice
John Tchicai - tenor saxophone, flute, percussion, voice
Famoudou Don Moye - drums, percussion, voice
Recorded live at 'Praxis 85' festival at Orpheus Theatre, Athens, Greece on 8 May 1985.
Recording engineer George Ergomenides.
Design by Lora Denis; photograph by Agis Kelpekis.
 
EAC log
Exact Audio Copy V0.99 prebeta 5 from 4. May 2009
EAC extraction logfile from 4. August 2010, 22:44
Geerken-Tchicai-Moye / Cassava Balls
Used drive : HL-DT-STDVD-ROM GDR8162B Adapter: 1 ID: 1
Read mode : Secure
Utilize accurate stream : Yes
Defeat audio cache : Yes
Make use of C2 pointers : No
Read offset correction : 102
Overread into Lead-In and Lead-Out : Yes
Fill up missing offset samples with silence : Yes
Delete leading and trailing silent blocks : No
Null samples used in CRC calculations : Yes
Used interface : Installed external ASPI interface
Gap handling : Appended to previous track
Used output format : User Defined Encoder
Selected bitrate : 768 kBit/s
Quality : High
Add ID3 tag : No
Command line compressor : C:\Program Files\FLAC\flac.exe
Additional command line options : -V -8 -T "ARTIST=%a" -T "TITLE=%t" -T "ALBUM=%g" -T "TRACKNUMBER=%n" -T "GENRE=%m" %s
TOC of the extracted CD
Track | Start | Length | Start sector | End sector
---------------------------------------------------------
1 | 0:00.00 | 7:26.48 | 0 | 33497
2 | 7:26.48 | 6:44.46 | 33498 | 63843
3 | 14:11.19 | 8:07.47 | 63844 | 100415
4 | 22:18.66 | 4:35.53 | 100416 | 121093
5 | 26:54.44 | 4:51.40 | 121094 | 142958
6 | 31:46.09 | 11:14.72 | 142959 | 193580
7 | 43:01.06 | 6:46.60 | 193581 | 224090
8 | 49:47.66 | 6:16.05 | 224091 | 252295
9 | 56:03.71 | 8:37.28 | 252296 | 291098
Track 1
Filename C:\ru up\Geerken-Tchicai-Moye - Cassava Balls\01 - Patriotic Poem Mumber One Forty Years After.wav
Pre-gap length 0:00:02.00
Peak level 77.3 %
Track quality 99.9 %
Test CRC 1A5C7A38
Copy CRC 1A5C7A38
Track not present in AccurateRip database
Copy OK
Track 2
Filename C:\ru up\Geerken-Tchicai-Moye - Cassava Balls\02 - Sawasawa.wav
Peak level 86.8 %
Track quality 100.0 %
Test CRC 1922F0DB
Copy CRC 1922F0DB
Track not present in AccurateRip database
Copy OK
Track 3
Filename C:\ru up\Geerken-Tchicai-Moye - Cassava Balls\03 - Races Places Faces and Asses.wav
Peak level 100.0 %
Track quality 100.0 %
Test CRC 96DE816A
Copy CRC 96DE816A
Track not present in AccurateRip database
Copy OK
Track 4
Filename C:\ru up\Geerken-Tchicai-Moye - Cassava Balls\04 - Mohawk.wav
Peak level 100.0 %
Track quality 100.0 %
Test CRC BD8D7B85
Copy CRC BD8D7B85
Track not present in AccurateRip database
Copy OK
Track 5
Filename C:\ru up\Geerken-Tchicai-Moye - Cassava Balls\05 - Mothers.wav
Peak level 100.0 %
Track quality 99.9 %
Test CRC 3D6D0333
Copy CRC 3D6D0333
Track not present in AccurateRip database
Copy OK
Track 6
Filename C:\ru up\Geerken-Tchicai-Moye - Cassava Balls\06 - Marconison.wav
Peak level 100.0 %
Track quality 100.0 %
Test CRC 6482D809
Copy CRC 6482D809
Track not present in AccurateRip database
Copy OK
Track 7
Filename C:\ru up\Geerken-Tchicai-Moye - Cassava Balls\07 - Cassava Snake One Pot.wav
Peak level 100.0 %
Track quality 100.0 %
Test CRC 0E31C0AF
Copy CRC 0E31C0AF
Track not present in AccurateRip database
Copy OK
Track 8
Filename C:\ru up\Geerken-Tchicai-Moye - Cassava Balls\08 - Mikel Black.wav
Peak level 92.4 %
Track quality 100.0 %
Test CRC 6903B255
Copy CRC 6903B255
Track not present in AccurateRip database
Copy OK
Track 9
Filename C:\ru up\Geerken-Tchicai-Moye - Cassava Balls\09 - Rosty Metal.wav
Peak level 82.2 %
Track quality 99.6 %
Test CRC 51A5A525
Copy CRC 51A5A525
Track not present in AccurateRip database
Copy OK
None of the tracks are present in the AccurateRip database
No errors occurred
End of status report
 
cue
REM GENRE "Free Jazz"
REM DATE 1985
REM DISCID 890F2909
REM COMMENT "ExactAudioCopy v0.99pb5"
CATALOG 0000000000000
PERFORMER "Geerken-Tchicai-Moye"
TITLE "Cassava Balls"
FILE "01 - Patriotic Poem Mumber One Forty Years After.wav" WAVE
TRACK 01 AUDIO
TITLE "Patriotic Poem Mumber One Forty Years After"
PERFORMER "Geerken-Tchicai-Moye"
FLAGS DCP
INDEX 01 00:00:00
FILE "02 - Sawasawa.wav" WAVE
TRACK 02 AUDIO
TITLE "Sawasawa"
PERFORMER "Geerken-Tchicai-Moye"
FLAGS DCP
INDEX 01 00:00:00
FILE "03 - Races Places Faces and Asses.wav" WAVE
TRACK 03 AUDIO
TITLE "Races Places Faces and Asses"
PERFORMER "Geerken-Tchicai-Moye"
FLAGS DCP
INDEX 01 00:00:00
FILE "04 - Mohawk.wav" WAVE
TRACK 04 AUDIO
TITLE "Mohawk"
PERFORMER "Geerken-Tchicai-Moye"
FLAGS DCP
INDEX 01 00:00:00
FILE "05 - Mothers.wav" WAVE
TRACK 05 AUDIO
TITLE "Mothers"
PERFORMER "Geerken-Tchicai-Moye"
FLAGS DCP
INDEX 01 00:00:00
FILE "06 - Marconison.wav" WAVE
TRACK 06 AUDIO
TITLE "Marconison"
PERFORMER "Geerken-Tchicai-Moye"
FLAGS DCP
INDEX 01 00:00:00
FILE "07 - Cassava Snake One Pot.wav" WAVE
TRACK 07 AUDIO
TITLE "Cassava Snake One Pot"
PERFORMER "Geerken-Tchicai-Moye"
FLAGS DCP
INDEX 01 00:00:00
FILE "08 - Mikel Black.wav" WAVE
TRACK 08 AUDIO
TITLE "Mikel Black"
PERFORMER "Geerken-Tchicai-Moye"
FLAGS DCP
INDEX 01 00:00:00
FILE "09 - Rosty Metal.wav" WAVE
TRACK 09 AUDIO
TITLE "Rosty Metal"
PERFORMER "Geerken-Tchicai-Moye"
FLAGS DCP
INDEX 01 00:00:00
 
Bonus
Scans of the cover and some pages of Geerken's book Obduktionsprotokoll included.
This book is a personal gift from the master.
По всем вопросам пишите личное сообщение пользователю M0p94ok.
01:54
159
Нет комментариев. Ваш будет первым!