Вы используете незарегистрированную версию компонента "Вкладки"!

Поиск

(Free Jazz, Avant-Garde Jazz) John Carter Quintet: Variations on Selected Themes for Jazz Quintet - 1979, FLAC (tracks+.cue), lossless

Треклист:
John Carter Quintet: Variations on Selected Themes for Jazz Quintet
Жанр: Free Jazz, Free Improvisation, Avant-Garde Jazz
Год выпуска диска: 1979
Производитель диска: Germany
Label: Moers Music 02084
Аудио кодек: FLAC
Тип рипа: tracks+.cue + Artwork
Битрейт аудио: lossless
Продолжительность: 42:04
Происхождение рипа: собственный рип с оригинального диска.
Треклист:
01. B.L.'s Delight 13:55
02. Echoes From Haarlem 7:25
03. Woodman's Hall Blues 7:28
04. Petals 7:21
05. And She Speaks 7:21
All compositions by John Carter.
Доп. информация:
John Carter - clarinet
James Newton - flute
Bobby Bradford - trumpet
Bob Stewart - tuba
Phillip Wilson - drums
Recorded on 15 August 1979 at Studio 57, Düsseldorf, Germany.
Recorded by Hans Schlosser.
 
EAC log
Exact Audio Copy V0.99 prebeta 5 from 4. May 2009
EAC extraction logfile from 4. August 2010, 22:13
John Carter / Variations
Used drive : HL-DT-STDVD-ROM GDR8162B Adapter: 1 ID: 1
Read mode : Secure
Utilize accurate stream : Yes
Defeat audio cache : Yes
Make use of C2 pointers : No
Read offset correction : 102
Overread into Lead-In and Lead-Out : Yes
Fill up missing offset samples with silence : Yes
Delete leading and trailing silent blocks : No
Null samples used in CRC calculations : Yes
Used interface : Installed external ASPI interface
Gap handling : Appended to previous track
Used output format : User Defined Encoder
Selected bitrate : 768 kBit/s
Quality : High
Add ID3 tag : No
Command line compressor : C:\Program Files\FLAC\flac.exe
Additional command line options : -V -8 -T "ARTIST=%a" -T "TITLE=%t" -T "ALBUM=%g" -T "TRACKNUMBER=%n" -T "GENRE=%m" %s
TOC of the extracted CD
Track | Start | Length | Start sector | End sector
---------------------------------------------------------
1 | 0:00.50 | 14:01.32 | 50 | 63156
2 | 14:02.07 | 7:30.65 | 63157 | 96971
3 | 21:32.72 | 7:27.70 | 96972 | 130566
4 | 29:00.67 | 7:22.18 | 130567 | 163734
5 | 36:23.10 | 5:44.72 | 163735 | 189606
Track 1
Filename C:\ru up\John Carter - Variations\01 - B.L.'s Delight.wav
Pre-gap length 0:00:02.50
Peak level 89.1 %
Track quality 99.9 %
Test CRC 97AC9D81
Copy CRC 97AC9D81
Track not present in AccurateRip database
Copy OK
Track 2
Filename C:\ru up\John Carter - Variations\02 - Echoes From Harlem.wav
Pre-gap length 0:00:03.27
Peak level 56.9 %
Track quality 100.0 %
Test CRC E4CBFD35
Copy CRC E4CBFD35
Accurately ripped (confidence 2) [C7982CDE]
Copy OK
Track 3
Filename C:\ru up\John Carter - Variations\03 - Woodman's Hall Blues.wav
Pre-gap length 0:00:03.40
Peak level 89.1 %
Track quality 99.9 %
Test CRC 0D11BD96
Copy CRC 0D11BD96
Accurately ripped (confidence 2) [9AED1CFB]
Copy OK
Track 4
Filename C:\ru up\John Carter - Variations\04 - Petals.wav
Pre-gap length 0:00:02.65
Peak level 44.3 %
Track quality 100.0 %
Test CRC 2570D927
Copy CRC 2570D927
Accurately ripped (confidence 2) [5BABDA13]
Copy OK
Track 5
Filename C:\ru up\John Carter - Variations\05 - And She Speaks.wav
Pre-gap length 0:00:02.70
Peak level 78.2 %
Track quality 100.0 %
Test CRC FB9FC0FE
Copy CRC FB9FC0FE
Accurately ripped (confidence 2) [5571FF04]
Copy OK
4 track(s) accurately ripped
1 track(s) not present in the AccurateRip database
Some tracks could not be verified as accurate
No errors occurred
End of status report
/pre]
 
cue
[pre]REM GENRE "Free Jazz"
REM DATE 1979
REM DISCID 4009E005
REM COMMENT "ExactAudioCopy v0.99pb5"
PERFORMER "John Carter"
TITLE "Variations"
FILE "01 - B.L.'s Delight.wav" WAVE
TRACK 01 AUDIO
TITLE "B.L.'s Delight"
PERFORMER "John Carter"
PREGAP 00:00:50
INDEX 01 00:00:00
TRACK 02 AUDIO
TITLE "Echoes From Harlem"
PERFORMER "John Carter"
INDEX 00 13:58:05
FILE "02 - Echoes From Harlem.wav" WAVE
INDEX 01 00:00:00
TRACK 03 AUDIO
TITLE "Woodman's Hall Blues"
PERFORMER "John Carter"
INDEX 00 07:27:25
FILE "03 - Woodman's Hall Blues.wav" WAVE
INDEX 01 00:00:00
TRACK 04 AUDIO
TITLE "Petals"
PERFORMER "John Carter"
INDEX 00 07:25:05
FILE "04 - Petals.wav" WAVE
INDEX 01 00:00:00
TRACK 05 AUDIO
TITLE "And She Speaks"
PERFORMER "John Carter"
INDEX 00 07:19:23
FILE "05 - And She Speaks.wav" WAVE
INDEX 01 00:00:00
Original LP cover scan incl.
По всем вопросам пишите личное сообщение пользователю M0p94ok.
01:53
166
Нет комментариев. Ваш будет первым!