Вы используете незарегистрированную версию компонента "Вкладки"!

Поиск

(Avant-Garde / Free Improvisation) The Implicate Order - At Seixal - 2001, FLAC (image+.cue), lossless

Треклист:
The Implicate Order - At Seixal

Жанр: Avant-Garde / Free Improvisation
Год выпуска диска: 2001
Производитель диска: Clean Feed CF001; Portugal
Аудио кодек: FLAC
Тип рипа: image+.cue
Битрейт аудио: lossless
Продолжительность: 1:16:25
Paulo Curado: alto saxophone
Rodrigo Amado: baritone saxophone
Steve Swell: trombone
Ken Filiano: bass
Lou Grassi: drums
1. For When Tathagatas Walk the Earth
2. For Jose Saramago
3. Bohm’s Gnostic
4. Sunshine in Seixal
5. Dance of the Expatriates
6. Avant Fado Meeting
7. Everything is Everything
 
Clean Feed
The Implicate Order “At Seixal” is the recording of a memorable concert in Auditório do Forum Cultural do Seixal, home of one of the most important Jazz Festivals in Portugal. It is also a landmark in the collaboration between Portuguese and American improvisers. Before a numerous and attentive audience, the trio played their organic music, completely improvised, full of musical interaction and almost-telepathic communication.
Each one of the trio musicians, Steve Swell, Ken Filiano or Lou Grassi, play an important role in the development of their instrument’s historical language and the evolutive speech of Jazz itself.
Steve Swell is, perhaps, the most important and creative trombone player of today’s Jazz. He is a resident member of the William Parker, Alan Silva and Roswell Rudd ensembles, and also played and recorded with musicians like Joey Baron and Ellery Eskelin (in the group Barondown). Steve’s playing remains an essential inspiration for everyone who believes music can be powerful and complex without loosing spirituality.
Ken Filiano is a bass player that connects deeply with the Jazz tradition and, at the same time, transmits an urgent sense of modernity in all his playing. He records and plays with musicians from the most diverse musical areas; John Carter, Bobby Bradford, Frank Strazzeri, Bill Perkins, Richard Grossman, Roswell Rudd, Vinny Golia, Steve Adams, and countless others. He is, without a doubt, one of the most talented and creative bass players of our time.
Lou Grassi is a versatile and imaginative drummer. He instils an interesting blend of quietness and power in his playing. He plays with the likes of Charles Gayle, Ken Simon, Roswell Rudd, William Parker, Paul Smoker, among others, and still finds time to lead his own Dixieland band; the Dixie Peppers. Lou’s equally at ease in the most open and free structures as in the hardest swing.
The two Portuguese saxophone players, Rodrigo Amado and Paulo Curado, were able to fit in smoothly, communicating deeply with the trio. They’re both seasoned musicians from the Portuguese creative music scene and have played countless hours of improvised music. The result of this participation was one of the surprises of the session.
 
EAC Report
Exact Audio Copy V0.99 prebeta 4 from 23. January 2008
EAC extraction logfile from 13. June 2010, 0:18
The Implicate Order / At Seixal
Used drive : TSSTcorpCD/DVDW SH-S182M Adapter: 1 ID: 1
Read mode : Secure
Utilize accurate stream : Yes
Defeat audio cache : Yes
Make use of C2 pointers : No
Read offset correction : 6
Overread into Lead-In and Lead-Out : No
Fill up missing offset samples with silence : Yes
Delete leading and trailing silent blocks : No
Null samples used in CRC calculations : Yes
Used interface : Installed external ASPI interface
Used output format : User Defined Encoder
Selected bitrate : 1024 kBit/s
Quality : High
Add ID3 tag : No
Command line compressor : C:\Program Files\Exact Audio Copy\Flac\flac.exe
Additional command line options : -6 -V -T "ARTIST=%a" -T "TITLE=%t" -T "ALBUM=%g" -T "DATE=%y" -T "TRACKNUMBER=%n" -T "GENRE=%m" -T "COMMENT=EAC FLAC -6" %s
TOC of the extracted CD
Track | Start | Length | Start sector | End sector
---------------------------------------------------------
1 | 0:00.00 | 7:41.62 | 0 | 34636
2 | 7:41.62 | 18:25.46 | 34637 | 117557
3 | 26:07.33 | 10:38.57 | 117558 | 165464
4 | 36:46.15 | 8:33.42 | 165465 | 203981
5 | 45:19.57 | 13:37.25 | 203982 | 265281
6 | 58:57.07 | 11:06.28 | 265282 | 315259
7 | 70:03.35 | 6:21.51 | 315260 | 343885
Range status and errors
Selected range
Filename C:\Users\Igor\Music\eac\The Implicate Order - At Seixal.wav
Peak level 67.3 %
Range quality 100.0 %
Test CRC 1B721CB2
Copy CRC 1B721CB2
Copy OK
No errors occurred
AccurateRip summary
Track 1 not present in database
Track 2 not present in database
Track 3 not present in database
Track 4 not present in database
Track 5 not present in database
Track 6 not present in database
Track 7 not present in database
None of the tracks are present in the AccurateRip database
End of status report

рип собственный
Историческая запись в некоем роде. С неё всё и началось.
Any questions -> support@pro-jazz.com. По всем вопросам пишите -> support@pro-jazz.com
01:52
136
Нет комментариев. Ваш будет первым!