Вы используете незарегистрированную версию компонента "Вкладки"!

Поиск

(Free Jazz, Free Improvisation, Avant-Garde) Francois Houle: Cryptology - 2000, FLAC (tracks+.cue), lossless

Треклист:
Francois Houle: Cryptology
Жанр: Free Jazz, Free Improvisation, Avant-Garde
Год выпуска диска: 2000
Производитель диска: Germany
Label: between the lines btl 012
Аудио кодек: FLAC
Тип рипа: tracks+.cue + Artwork
Битрейт аудио: lossless
Продолжительность: 48:09
Происхождение рипа: собственный рип с оригинального диска.
Треклист:
01 Palinodia I (Houle) 7:44
02 Le Corps abstrait s'abandome á la Lumiére (Houle) 3:44
03 Prayer (Houle) 5:55
04 Hive-Mind (Houle) 7:47
05 Asymptote (Houle) 5:01
06 Palinodia II (Houle) 3:09
07 The Donkey's Tale (Houle) 7:33
08 Keystream Mystery (Houle) 7:35
Доп. информация:
François Houle - clarinets, bass clarinet
Peggy Lee - violoncello
Tony Wilson - guitar
Brad Turner - trumpet, piano
Dylan van der Schyff - percussion
special guest Sheila McDonald violin on 02.
Recorded October 4th and 5th, 2000 at Blue Wave Productions, Vancouver, British Columbia, Canada
Recording & mixing engineer: Shawn Pierce, for Maximum Music Ltd.
Cover Art Work: Jutta Obenhuber
 
EAC log
Exact Audio Copy V0.99 prebeta 5 from 4. May 2009
EAC extraction logfile from 5. August 2010, 20:28
Francois Houle / Cryptology
Used drive : HL-DT-STDVD-ROM GDR8162B Adapter: 1 ID: 1
Read mode : Secure
Utilize accurate stream : Yes
Defeat audio cache : Yes
Make use of C2 pointers : No
Read offset correction : 102
Overread into Lead-In and Lead-Out : Yes
Fill up missing offset samples with silence : Yes
Delete leading and trailing silent blocks : No
Null samples used in CRC calculations : Yes
Used interface : Installed external ASPI interface
Gap handling : Appended to previous track
Used output format : User Defined Encoder
Selected bitrate : 768 kBit/s
Quality : High
Add ID3 tag : No
Command line compressor : C:\Program Files\FLAC\flac.exe
Additional command line options : -V -8 -T "ARTIST=%a" -T "TITLE=%t" -T "ALBUM=%g" -T "TRACKNUMBER=%n" -T "GENRE=%m" %s
TOC of the extracted CD
Track | Start | Length | Start sector | End sector
---------------------------------------------------------
1 | 0:00.00 | 7:44.10 | 0 | 34809
2 | 7:44.10 | 3:44.60 | 34810 | 51669
3 | 11:28.70 | 5:55.12 | 51670 | 78306
4 | 17:24.07 | 7:47.09 | 78307 | 113340
5 | 25:11.16 | 5:01.66 | 113341 | 135981
6 | 30:13.07 | 3:09.10 | 135982 | 150166
7 | 33:22.17 | 7:33.03 | 150167 | 184144
8 | 40:55.20 | 7:35.68 | 184145 | 218337
Track 1
Filename C:\ru up\Francois Houle - Cryptology\01 - Palinodia I.wav
Pre-gap length 0:00:02.00
Peak level 92.0 %
Track quality 100.0 %
Test CRC 827005E1
Copy CRC 827005E1
Accurately ripped (confidence 1) [77402694]
Copy OK
Track 2
Filename C:\ru up\Francois Houle - Cryptology\02 - Le corps abstrait s'abandonne a la lumiere.wav
Pre-gap length 0:00:02.35
Peak level 97.3 %
Track quality 99.9 %
Test CRC 9BC616B9
Copy CRC 9BC616B9
Accurately ripped (confidence 1) [E46EE671]
Copy OK
Track 3
Filename C:\ru up\Francois Houle - Cryptology\03 - Prayer.wav
Pre-gap length 0:00:03.35
Peak level 53.7 %
Track quality 100.0 %
Test CRC 1A9713D7
Copy CRC 1A9713D7
Accurately ripped (confidence 1) [0AE5DC6F]
Copy OK
Track 4
Filename C:\ru up\Francois Houle - Cryptology\04 - Hive-mind.wav
Pre-gap length 0:00:03.00
Peak level 97.7 %
Track quality 100.0 %
Test CRC 2F30BA7B
Copy CRC 2F30BA7B
Accurately ripped (confidence 1) [724CD187]
Copy OK
Track 5
Filename C:\ru up\Francois Houle - Cryptology\05 - Aysmptote.wav
Pre-gap length 0:00:03.00
Peak level 97.7 %
Track quality 100.0 %
Test CRC 66438164
Copy CRC 66438164
Accurately ripped (confidence 1) [C2316143]
Copy OK
Track 6
Filename C:\ru up\Francois Houle - Cryptology\06 - Palinodia II.wav
Pre-gap length 0:00:02.00
Peak level 31.7 %
Track quality 100.0 %
Test CRC C29E8114
Copy CRC C29E8114
Accurately ripped (confidence 1) [EAC70B44]
Copy OK
Track 7
Filename C:\ru up\Francois Houle - Cryptology\07 - The Donkey's Tale.wav
Pre-gap length 0:00:02.00
Peak level 89.5 %
Track quality 100.0 %
Test CRC 2D3CD8E4
Copy CRC 2D3CD8E4
Accurately ripped (confidence 1) [6E5B1EFF]
Copy OK
Track 8
Filename C:\ru up\Francois Houle - Cryptology\08 - Keystream Mystery.wav
Pre-gap length 0:00:02.35
Peak level 94.3 %
Track quality 99.9 %
Test CRC 9A6166C8
Copy CRC 9A6166C8
Accurately ripped (confidence 1) [EED95B16]
Copy OK
All tracks accurately ripped
No errors occurred
End of status report
 
cue
REM GENRE "Free Jazz"
REM DATE 2000
REM DISCID 5D0B5F08
REM COMMENT "ExactAudioCopy v0.99pb5"
PERFORMER "Francois Houle"
TITLE "Cryptology"
FILE "01 - Palinodia I.wav" WAVE
TRACK 01 AUDIO
TITLE "Palinodia I"
PERFORMER "Francois Houle"
ISRC DEM840100117
FLAGS DCP
INDEX 01 00:00:00
TRACK 02 AUDIO
TITLE "Le corps abstrait s'abandonne a la lumiere"
PERFORMER "Francois Houle"
ISRC DEM840100118
FLAGS DCP
INDEX 00 07:41:50
FILE "02 - Le corps abstrait s'abandonne a la lumiere.wav" WAVE
INDEX 01 00:00:00
TRACK 03 AUDIO
TITLE "Prayer"
PERFORMER "Francois Houle"
ISRC DEM840100119
FLAGS DCP
INDEX 00 03:41:25
FILE "03 - Prayer.wav" WAVE
INDEX 01 00:00:00
TRACK 04 AUDIO
TITLE "Hive-mind"
PERFORMER "Francois Houle"
ISRC DEM840100120
FLAGS DCP
INDEX 00 05:52:12
FILE "04 - Hive-mind.wav" WAVE
INDEX 01 00:00:00
TRACK 05 AUDIO
TITLE "Aysmptote"
PERFORMER "Francois Houle"
ISRC DEM840100121
FLAGS DCP
INDEX 00 07:44:09
FILE "05 - Aysmptote.wav" WAVE
INDEX 01 00:00:00
TRACK 06 AUDIO
TITLE "Palinodia II"
PERFORMER "Francois Houle"
ISRC DEM840100122
FLAGS DCP
INDEX 00 04:59:66
FILE "06 - Palinodia II.wav" WAVE
INDEX 01 00:00:00
TRACK 07 AUDIO
TITLE "The Donkey's Tale"
PERFORMER "Francois Houle"
ISRC DEM840100116
FLAGS DCP
INDEX 00 03:07:10
FILE "07 - The Donkey's Tale.wav" WAVE
INDEX 01 00:00:00
TRACK 08 AUDIO
TITLE "Keystream Mystery"
PERFORMER "Francois Houle"
ISRC DEM840100123
FLAGS DCP
INDEX 00 07:30:43
FILE "08 - Keystream Mystery.wav" WAVE
INDEX 01 00:00:00
По всем вопросам пишите личное сообщение пользователю M0p94ok.
01:54
146
Нет комментариев. Ваш будет первым!