Поиск

(Free Jazz, Avant-Garde Jazz) Ellis - Ochs - Robinson: What We Live - 1996, FLAC (tracks+.cue), lossless

Треклист:
Ellis - Ochs - Robinson: What We Live
Жанр: Free Jazz, Avant-Garde Jazz
Год выпуска диска: 1996
Производитель диска: Japan
Label: DIW Records DIW-909
Аудио кодек: FLAC
Тип рипа: tracks+.cue + Artwork
Битрейт аудио: lossless
Продолжительность: 1:07:13
Происхождение рипа: собственный рип с оригинального диска.
Треклист:
01. Into the Mauve (It' like that) 06.21
02. The Deke 08.33
03. A Case of the Once It Was You / for N.J. 09.55
04. Everlasting / for Dewey Redman 07.34
05. Metropolitans 10.15
06. The Deep Blue Goodbye 10.58
07. Little Mysteries 05.23
08. The Way Back 07.59
All pieces by Ellis, Ochs and Robinson.
Доп. информация:
Lisle Ellis - bass
Lawrence Ochs - tenor and sopranino saxophones
Donald Robinson - drums
Recorded on April 24, June 4 and June 12, 1995 by Mark Keaton at Sharkbite Studios, Oakland, California
Editing and pre-mastering by Myles Boisen and Larry Ochs at Garuda Studios, San Francisco
Mastered by Allan Tucker at Foothill Digital, NYC
 
EAC log
Exact Audio Copy V0.99 prebeta 5 from 4. May 2009
EAC extraction logfile from 5. August 2010, 21:15
Ellis-Ochs-Robinson / What We Live
Used drive : HL-DT-STDVD-ROM GDR8162B Adapter: 1 ID: 1
Read mode : Secure
Utilize accurate stream : Yes
Defeat audio cache : Yes
Make use of C2 pointers : No
Read offset correction : 102
Overread into Lead-In and Lead-Out : Yes
Fill up missing offset samples with silence : Yes
Delete leading and trailing silent blocks : No
Null samples used in CRC calculations : Yes
Used interface : Installed external ASPI interface
Gap handling : Appended to previous track
Used output format : User Defined Encoder
Selected bitrate : 768 kBit/s
Quality : High
Add ID3 tag : No
Command line compressor : C:\Program Files\FLAC\flac.exe
Additional command line options : -V -8 -T "ARTIST=%a" -T "TITLE=%t" -T "ALBUM=%g" -T "TRACKNUMBER=%n" -T "GENRE=%m" %s
TOC of the extracted CD
Track | Start | Length | Start sector | End sector
---------------------------------------------------------
1 | 0:00.00 | 6:23.69 | 0 | 28793
2 | 6:23.69 | 8:35.13 | 28794 | 67431
3 | 14:59.07 | 9:55.58 | 67432 | 112114
4 | 24:54.65 | 7:39.22 | 112115 | 146561
5 | 32:34.12 | 10:17.40 | 146562 | 192876
6 | 42:51.52 | 11:02.23 | 192877 | 242549
7 | 53:54.00 | 5:23.60 | 242550 | 266834
8 | 59:17.60 | 7:59.70 | 266835 | 302829
Track 1
Filename C:\ru up\Ellis-Ochs-Robinson - What We Live\01 - Into the Mauve (It's like that).wav
Pre-gap length 0:00:02.00
Peak level 86.2 %
Track quality 100.0 %
Test CRC FBF7A7BB
Copy CRC FBF7A7BB
Track not present in AccurateRip database
Copy OK
Track 2
Filename C:\ru up\Ellis-Ochs-Robinson - What We Live\02 - The Deke.wav
Pre-gap length 0:00:02.19
Peak level 97.8 %
Track quality 100.0 %
Test CRC 88CEA8B7
Copy CRC 88CEA8B7
Track not present in AccurateRip database
Copy OK
Track 3
Filename C:\ru up\Ellis-Ochs-Robinson - What We Live\03 - A Case of the Once It Was You.wav
Pre-gap length 0:00:01.45
Peak level 96.7 %
Track quality 100.0 %
Test CRC 76EF8F23
Copy CRC 76EF8F23
Track not present in AccurateRip database
Copy OK
Track 4
Filename C:\ru up\Ellis-Ochs-Robinson - What We Live\04 - Everlasting.wav
Peak level 98.1 %
Track quality 100.0 %
Test CRC BAD69AE9
Copy CRC BAD69AE9
Track not present in AccurateRip database
Copy OK
Track 5
Filename C:\ru up\Ellis-Ochs-Robinson - What We Live\05 - Metropolitans.wav
Pre-gap length 0:00:04.72
Peak level 99.9 %
Track quality 100.0 %
Test CRC 132F8D62
Copy CRC 132F8D62
Track not present in AccurateRip database
Copy OK
Track 6
Filename C:\ru up\Ellis-Ochs-Robinson - What We Live\06 - The Deep Blue Goodbye.wav
Pre-gap length 0:00:01.52
Peak level 99.3 %
Track quality 100.0 %
Test CRC 3710B81E
Copy CRC 3710B81E
Track not present in AccurateRip database
Copy OK
Track 7
Filename C:\ru up\Ellis-Ochs-Robinson - What We Live\07 - Little Mysteries.wav
Pre-gap length 0:00:03.15
Peak level 96.4 %
Track quality 100.0 %
Test CRC F2DD9BCD
Copy CRC F2DD9BCD
Track not present in AccurateRip database
Copy OK
Track 8
Filename C:\ru up\Ellis-Ochs-Robinson - What We Live\08 - The Way Back.wav
Peak level 97.6 %
Track quality 100.0 %
Test CRC 7A95D3DD
Copy CRC 7A95D3DD
Track not present in AccurateRip database
Copy OK
None of the tracks are present in the AccurateRip database
No errors occurred
End of status report
 
cue
REM GENRE "Free Jazz"
REM DATE 1995
REM DISCID 7A0FC508
REM COMMENT "ExactAudioCopy v0.99pb5"
CATALOG 0000000000000
PERFORMER "Ellis-Ochs-Robinson"
TITLE "What We Live"
FILE "01 - Into the Mauve (It's like that).wav" WAVE
TRACK 01 AUDIO
TITLE "Into the Mauve (It's like that)"
PERFORMER "Ellis-Ochs-Robinson"
INDEX 01 00:00:00
TRACK 02 AUDIO
TITLE "The Deke"
PERFORMER "Ellis-Ochs-Robinson"
INDEX 00 06:21:50
FILE "02 - The Deke.wav" WAVE
INDEX 01 00:00:00
TRACK 03 AUDIO
TITLE "A Case of the Once It Was You"
PERFORMER "Ellis-Ochs-Robinson"
INDEX 00 08:33:43
FILE "03 - A Case of the Once It Was You.wav" WAVE
INDEX 01 00:00:00
FILE "04 - Everlasting.wav" WAVE
TRACK 04 AUDIO
TITLE "Everlasting"
PERFORMER "Ellis-Ochs-Robinson"
INDEX 01 00:00:00
TRACK 05 AUDIO
TITLE "Metropolitans"
PERFORMER "Ellis-Ochs-Robinson"
INDEX 00 07:34:25
FILE "05 - Metropolitans.wav" WAVE
INDEX 01 00:00:00
TRACK 06 AUDIO
TITLE "The Deep Blue Goodbye"
PERFORMER "Ellis-Ochs-Robinson"
INDEX 00 10:15:63
FILE "06 - The Deep Blue Goodbye.wav" WAVE
INDEX 01 00:00:00
TRACK 07 AUDIO
TITLE "Little Mysteries"
PERFORMER "Ellis-Ochs-Robinson"
INDEX 00 10:59:08
FILE "07 - Little Mysteries.wav" WAVE
INDEX 01 00:00:00
FILE "08 - The Way Back.wav" WAVE
TRACK 08 AUDIO
TITLE "The Way Back"
PERFORMER "Ellis-Ochs-Robinson"
INDEX 01 00:00:00
По всем вопросам пишите личное сообщение пользователю M0p94ok.
01:55
167
Нет комментариев. Ваш будет первым!