Вы используете незарегистрированную версию компонента "Вкладки"!

Поиск

(Free Jazz, Free Improvisation, FMP) [CD] Peter Brötzmann (Brotzmann) - 14 Love Poems [plus 10 more] - 2004, FLAC (tracks+.cue), lossless

(Free Jazz, Free Improvisation, FMP) [CD] Peter Brötzmann (Brotzmann) - 14 Love Poems [plus 10 more] - 2004, FLAC (tracks+.cue), lossless
Треклист:
Peter Brötzmann / 14 Love Poems [plus 10 more]
Жанр: Free Jazz, Free Improvisation, FMP
Носитель: CD
Страна-производитель диска: Germany
Год издания: 2004
Издатель (лейбл): FMP
Номер по каталогу: FMP CD 125
Аудиокодек: FLAC (*.flac)
Тип рипа: tracks+.cue
Битрейт аудио: lossless
Продолжительность: 1:17:52
Источник (релизер): я
Наличие сканов в содержимом раздачи: нет
Треклист:
14 Love Poems (LP FMP 1060, 1984)
01. Nr. 1 baritone-sax / Lonely Woman 5:32
02. Nr. 2 a-clarinet 0:35
03. Nr. 3 alto-sax 2:58
04. Nr. 4 bass-clarinet 3:10
05. Nr. 5 a-clarinet 4:54
06. Nr. 6 tenor-sax 0:27
07. Nr. 7 baritone-sax 4:46
08. Nr. 8 tenor-sax, mouthpiece 4:08
09. Nr. 9 bass-clarinet 3:51
10. Nr. 10 tarogato 2:44
11. Nr. 11 e-flat-clarinet 2:21
12. Nr. 12 tenor-sax 1:44
13. Nr. 13 e-flat-clarinet 3:54
14. Nr. 14 tenor-sax 5:00
plus 10 more
15. Nr. 15 a-clarinet 6:01
16. Nr. 16 tenor-sax 4:46
17. Nr. 17 e-flat-clarinet 2:50
18. Nr. 18 e-flat-clarinet 1:34
19. Nr. 19 tenor-sax 3:06
20. Nr. 20 tenor-sax 2:27
21. Nr. 21 tarogato, alto-sax 2:08
22. Nr. 22 alto-sax 1:22
23. Nr. 23 alto-sax 2:44
24. Nr. 24 e-flat-clarinet 4:53
Dedicated to Kenneth Patchen. All compositions by Peter Brötzmann except Nr. 1 « Lonely Woman » by Ornette Coleman.
Recorded 21/22/23 of August 1984 in Berlin.
Peter Brötzmann – Alto, Tenor, Baritone Saxophones, Clarinets, Bass Clarinet, Tarogato, Mouthpiece
 
Лог создания рипа
Exact Audio Copy V1.0 beta 3 from 29. August 2011
EAC extraction logfile from 11. January 2014, 14:54
Peter Brötzmann / 14 Love Poems [plus 10 more]
Used drive : SlimtypeeNAU508 5 Adapter: 1 ID: 0
Read mode : Secure
Utilize accurate stream : Yes
Defeat audio cache : Yes
Make use of C2 pointers : No
Read offset correction : 6
Overread into Lead-In and Lead-Out : No
Fill up missing offset samples with silence : Yes
Delete leading and trailing silent blocks : No
Null samples used in CRC calculations : Yes
Used interface : Native Win32 interface for Win NT & 2000
Gap handling : Appended to previous track
Used output format : User Defined Encoder
Selected bitrate : 768 kBit/s
Quality : High
Add ID3 tag : No
Command line compressor : C:\Program Files (x86)\Exact Audio Copy\Flac\flac.exe
Additional command line options : -8 -V -T "ARTIST=%artist%" -T "TITLE=%title%" -T "ALBUM=%albumtitle%" -T "DATE=%year%" -T "TRACKNUMBER=%tracknr%" -T "GENRE=%genre%" -T "PERFORMER=%albuminterpret%" -T "COMPOSER=%composer%" %haslyrics%--tag-from-file=LYRICS="%lyricsfile%"%haslyrics% -T "ALBUMARTIST=%albumartist%" -T "DISCNUMBER=%cdnumber%" -T "TOTALDISCS=%totalcds%" -T "TOTALTRACKS=%numtracks%" -T "COMMENT=%comment%" %source% -o %dest%
TOC of the extracted CD
Track | Start | Length | Start sector | End sector
---------------------------------------------------------
1 | 0:00.00 | 5:31.42 | 0 | 24866
2 | 5:31.42 | 0:34.42 | 24867 | 27458
3 | 6:06.09 | 2:57.66 | 27459 | 40799
4 | 9:04.00 | 3:09.54 | 40800 | 55028
5 | 12:13.54 | 4:53.71 | 55029 | 77074
6 | 17:07.50 | 0:27.28 | 77075 | 79127
7 | 17:35.03 | 4:46.30 | 79128 | 100607
8 | 22:21.33 | 4:08.18 | 100608 | 119225
9 | 26:29.51 | 3:50.57 | 119226 | 136532
10 | 30:20.33 | 2:44.25 | 136533 | 148857
11 | 33:04.58 | 2:20.62 | 148858 | 159419
12 | 35:25.45 | 1:44.08 | 159420 | 167227
13 | 37:09.53 | 3:53.65 | 167228 | 184767
14 | 41:03.43 | 4:59.55 | 184768 | 207247
15 | 46:03.23 | 6:00.69 | 207248 | 234316
16 | 52:04.17 | 4:45.51 | 234317 | 255742
17 | 56:49.68 | 2:49.58 | 255743 | 268475
18 | 59:39.51 | 1:33.72 | 268476 | 275522
19 | 61:13.48 | 3:06.15 | 275523 | 289487
20 | 64:19.63 | 2:26.60 | 289488 | 300497
21 | 66:46.48 | 2:07.39 | 300498 | 310061
22 | 68:54.12 | 1:21.52 | 310062 | 316188
23 | 70:15.64 | 2:43.46 | 316189 | 328459
24 | 72:59.35 | 4:52.60 | 328460 | 350419
Track 1
Filename C:\EAC rips\01 - Nr. 1 baritone-sax - Lonely Woman.wav
Pre-gap length 0:00:02.00
Peak level 50.1 %
Extraction speed 2.5 X
Track quality 100.0 %
Test CRC 57D0907B
Copy CRC 57D0907B
Accurately ripped (confidence 2) [CB09C1C2] (AR v2)
Copy OK
Track 2
Filename C:\EAC rips\02 - Nr. 2 a-clarinet.wav
Peak level 46.4 %
Extraction speed 1.4 X
Track quality 100.0 %
Test CRC 351B5431
Copy CRC 351B5431
Accurately ripped (confidence 2) [731E4025] (AR v2)
Copy OK
Track 3
Filename C:\EAC rips\03 - Nr. 3 alto-sax.wav
Peak level 47.5 %
Extraction speed 2.5 X
Track quality 100.0 %
Test CRC 63DBD4EE
Copy CRC 63DBD4EE
Accurately ripped (confidence 2) [2057211C] (AR v2)
Copy OK
Track 4
Filename C:\EAC rips\04 - Nr. 4 bass-clarinet.wav
Peak level 50.2 %
Extraction speed 2.7 X
Track quality 100.0 %
Test CRC 95FE6921
Copy CRC 95FE6921
Accurately ripped (confidence 2) [7E45E828] (AR v2)
Copy OK
Track 5
Filename C:\EAC rips\05 - Nr. 5 a-clarinet.wav
Peak level 47.7 %
Extraction speed 3.1 X
Track quality 100.0 %
Test CRC 78C0A821
Copy CRC 78C0A821
Accurately ripped (confidence 2) [4BA426B2] (AR v2)
Copy OK
Track 6
Filename C:\EAC rips\06 - Nr. 6 tenor-sax.wav
Peak level 52.6 %
Extraction speed 1.5 X
Track quality 100.0 %
Test CRC 96D06416
Copy CRC 96D06416
Accurately ripped (confidence 2) [594C125D] (AR v2)
Copy OK
Track 7
Filename C:\EAC rips\07 - Nr. 7 baritone-sax.wav
Peak level 53.3 %
Extraction speed 3.3 X
Track quality 100.0 %
Test CRC 56C975CB
Copy CRC 56C975CB
Accurately ripped (confidence 2) [F181E8E6] (AR v2)
Copy OK
Track 8
Filename C:\EAC rips\08 - Nr. 8 tenor-sax, mouthpiece.wav
Peak level 50.9 %
Extraction speed 3.4 X
Track quality 100.0 %
Test CRC 416C43B9
Copy CRC 416C43B9
Accurately ripped (confidence 2) [9C747B5D] (AR v2)
Copy OK
Track 9
Filename C:\EAC rips\09 - Nr. 9 bass-clarinet.wav
Peak level 20.2 %
Extraction speed 2.9 X
Track quality 99.9 %
Test CRC D9A556AA
Copy CRC D9A556AA
Accurately ripped (confidence 2) [7AC7B13D] (AR v2)
Copy OK
Track 10
Filename C:\EAC rips\10 - Nr. 10 tarogato.wav
Peak level 46.2 %
Extraction speed 2.7 X
Track quality 99.9 %
Test CRC 02DB92FC
Copy CRC 02DB92FC
Accurately ripped (confidence 2) [665253AD] (AR v2)
Copy OK
Track 11
Filename C:\EAC rips\11 - Nr. 11 e-flat-clarinet.wav
Peak level 46.8 %
Extraction speed 3.4 X
Track quality 100.0 %
Test CRC B2BD5FEC
Copy CRC B2BD5FEC
Accurately ripped (confidence 2) [7F93CC00] (AR v2)
Copy OK
Track 12
Filename C:\EAC rips\12 - Nr. 12 tenor-sax.wav
Peak level 48.3 %
Extraction speed 3.2 X
Track quality 100.0 %
Test CRC 1579211E
Copy CRC 1579211E
Accurately ripped (confidence 2) [BFC89661] (AR v2)
Copy OK
Track 13
Filename C:\EAC rips\13 - Nr. 13 e-flat-clarinet.wav
Peak level 44.3 %
Extraction speed 3.7 X
Track quality 100.0 %
Test CRC 409F43D6
Copy CRC 409F43D6
Accurately ripped (confidence 2) [851A0189] (AR v2)
Copy OK
Track 14
Filename C:\EAC rips\14 - Nr. 14 tenor-sax.wav
Peak level 52.2 %
Extraction speed 4.1 X
Track quality 100.0 %
Test CRC 7F88ABD0
Copy CRC 7F88ABD0
Accurately ripped (confidence 2) [D8A5BAEF] (AR v2)
Copy OK
Track 15
Filename C:\EAC rips\15 - Nr. 15 a-clarinet.wav
Peak level 30.4 %
Extraction speed 4.5 X
Track quality 100.0 %
Test CRC 71139B94
Copy CRC 71139B94
Accurately ripped (confidence 2) [5DC42940] (AR v2)
Copy OK
Track 16
Filename C:\EAC rips\16 - Nr. 16 tenor-sax.wav
Peak level 49.9 %
Extraction speed 4.5 X
Track quality 100.0 %
Test CRC 38118AEC
Copy CRC 38118AEC
Accurately ripped (confidence 2) [C311E3E7] (AR v2)
Copy OK
Track 17
Filename C:\EAC rips\17 - Nr. 17 e-flat-clarinet.wav
Peak level 41.4 %
Extraction speed 4.3 X
Track quality 100.0 %
Test CRC ABBC1F4D
Copy CRC ABBC1F4D
Accurately ripped (confidence 2) [F43AEB18] (AR v2)
Copy OK
Track 18
Filename C:\EAC rips\18 - Nr. 18 e-flat-clarinet.wav
Peak level 11.9 %
Extraction speed 2.4 X
Track quality 99.8 %
Test CRC 8B484224
Copy CRC 8B484224
Accurately ripped (confidence 2) [65B3EAE9] (AR v2)
Copy OK
Track 19
Filename C:\EAC rips\19 - Nr. 19 tenor-sax.wav
Peak level 49.6 %
Extraction speed 4.4 X
Track quality 100.0 %
Test CRC 45BB0FB7
Copy CRC 45BB0FB7
Accurately ripped (confidence 2) [AD570CAB] (AR v2)
Copy OK
Track 20
Filename C:\EAC rips\20 - Nr. 20 tenor-sax.wav
Peak level 25.0 %
Extraction speed 4.3 X
Track quality 100.0 %
Test CRC F8567F20
Copy CRC F8567F20
Accurately ripped (confidence 2) [0372B9E6] (AR v2)
Copy OK
Track 21
Filename C:\EAC rips\21 - Nr. 21 tarogato, alto-sax.wav
Peak level 43.9 %
Extraction speed 4.2 X
Track quality 100.0 %
Test CRC DAF5EEF7
Copy CRC DAF5EEF7
Accurately ripped (confidence 2) [3E2D7CA0] (AR v2)
Copy OK
Track 22
Filename C:\EAC rips\22 - Nr. 22 alto-sax.wav
Peak level 44.0 %
Extraction speed 3.7 X
Track quality 100.0 %
Test CRC 1D4DABB1
Copy CRC 1D4DABB1
Accurately ripped (confidence 2) [6D2DD2FA] (AR v2)
Copy OK
Track 23
Filename C:\EAC rips\23 - Nr. 23 alto-sax.wav
Peak level 46.7 %
Extraction speed 4.5 X
Track quality 100.0 %
Test CRC F53E4DED
Copy CRC F53E4DED
Accurately ripped (confidence 2) [4F355BA7] (AR v2)
Copy OK
Track 24
Filename C:\EAC rips\24 - Nr. 24 e-flat-clarinet.wav
Peak level 50.2 %
Extraction speed 4.1 X
Track quality 99.9 %
Test CRC 5F879F80
Copy CRC 5F879F80
Accurately ripped (confidence 2) [FCAED18A] (AR v2)
Copy OK
All tracks accurately ripped
No errors occurred
End of status report
---- CUETools DB Plugin V2.1.4
[CTDB TOCID: ix1F8TVJQWwwCQb6G_jznl2ehqg-] disk not present in database
Submit result: ix1F8TVJQWwwCQb6G_jznl2ehqg- has been uploaded
==== Log checksum CCC7EF8E57688348C02D9E6068824D6796FB0B53BA71C998F14C673397A98307 ====
 
Содержание индексной карты (.CUE)
REM GENRE Jazz
REM DATE 2004
REM DISCID 52124018
REM COMMENT "ExactAudioCopy v1.0b3"
PERFORMER "Peter Brötzmann"
TITLE "14 Love Poems [plus 10 more]"
FILE "01 - Nr. 1 baritone-sax - Lonely Woman.wav" WAVE
TRACK 01 AUDIO
TITLE "Nr. 1 baritone-sax / Lonely Woman"
PERFORMER "Peter Brötzmann"
FLAGS DCP
INDEX 01 00:00:00
FILE "02 - Nr. 2 a-clarinet.wav" WAVE
TRACK 02 AUDIO
TITLE "Nr. 2 a-clarinet"
PERFORMER "Peter Brötzmann"
FLAGS DCP
INDEX 01 00:00:00
FILE "03 - Nr. 3 alto-sax.wav" WAVE
TRACK 03 AUDIO
TITLE "Nr. 3 alto-sax"
PERFORMER "Peter Brötzmann"
FLAGS DCP
INDEX 01 00:00:00
FILE "04 - Nr. 4 bass-clarinet.wav" WAVE
TRACK 04 AUDIO
TITLE "Nr. 4 bass-clarinet"
PERFORMER "Peter Brötzmann"
FLAGS DCP
INDEX 01 00:00:00
FILE "05 - Nr. 5 a-clarinet.wav" WAVE
TRACK 05 AUDIO
TITLE "Nr. 5 a-clarinet"
PERFORMER "Peter Brötzmann"
FLAGS DCP
INDEX 01 00:00:00
FILE "06 - Nr. 6 tenor-sax.wav" WAVE
TRACK 06 AUDIO
TITLE "Nr. 6 tenor-sax"
PERFORMER "Peter Brötzmann"
FLAGS DCP
INDEX 01 00:00:00
FILE "07 - Nr. 7 baritone-sax.wav" WAVE
TRACK 07 AUDIO
TITLE "Nr. 7 baritone-sax"
PERFORMER "Peter Brötzmann"
FLAGS DCP
INDEX 01 00:00:00
FILE "08 - Nr. 8 tenor-sax, mouthpiece.wav" WAVE
TRACK 08 AUDIO
TITLE "Nr. 8 tenor-sax, mouthpiece"
PERFORMER "Peter Brötzmann"
FLAGS DCP
INDEX 01 00:00:00
FILE "09 - Nr. 9 bass-clarinet.wav" WAVE
TRACK 09 AUDIO
TITLE "Nr. 9 bass-clarinet"
PERFORMER "Peter Brötzmann"
FLAGS DCP
INDEX 01 00:00:00
FILE "10 - Nr. 10 tarogato.wav" WAVE
TRACK 10 AUDIO
TITLE "Nr. 10 tarogato"
PERFORMER "Peter Brötzmann"
FLAGS DCP
INDEX 01 00:00:00
FILE "11 - Nr. 11 e-flat-clarinet.wav" WAVE
TRACK 11 AUDIO
TITLE "Nr. 11 e-flat-clarinet"
PERFORMER "Peter Brötzmann"
FLAGS DCP
INDEX 01 00:00:00
FILE "12 - Nr. 12 tenor-sax.wav" WAVE
TRACK 12 AUDIO
TITLE "Nr. 12 tenor-sax"
PERFORMER "Peter Brötzmann"
FLAGS DCP
INDEX 01 00:00:00
FILE "13 - Nr. 13 e-flat-clarinet.wav" WAVE
TRACK 13 AUDIO
TITLE "Nr. 13 e-flat-clarinet"
PERFORMER "Peter Brötzmann"
FLAGS DCP
INDEX 01 00:00:00
FILE "14 - Nr. 14 tenor-sax.wav" WAVE
TRACK 14 AUDIO
TITLE "Nr. 14 tenor-sax"
PERFORMER "Peter Brötzmann"
FLAGS DCP
INDEX 01 00:00:00
FILE "15 - Nr. 15 a-clarinet.wav" WAVE
TRACK 15 AUDIO
TITLE "Nr. 15 a-clarinet"
PERFORMER "Peter Brötzmann"
FLAGS DCP
INDEX 01 00:00:00
FILE "16 - Nr. 16 tenor-sax.wav" WAVE
TRACK 16 AUDIO
TITLE "Nr. 16 tenor-sax"
PERFORMER "Peter Brötzmann"
FLAGS DCP
INDEX 01 00:00:00
FILE "17 - Nr. 17 e-flat-clarinet.wav" WAVE
TRACK 17 AUDIO
TITLE "Nr. 17 e-flat-clarinet"
PERFORMER "Peter Brötzmann"
FLAGS DCP
INDEX 01 00:00:00
FILE "18 - Nr. 18 e-flat-clarinet.wav" WAVE
TRACK 18 AUDIO
TITLE "Nr. 18 e-flat-clarinet"
PERFORMER "Peter Brötzmann"
FLAGS DCP
INDEX 01 00:00:00
FILE "19 - Nr. 19 tenor-sax.wav" WAVE
TRACK 19 AUDIO
TITLE "Nr. 19 tenor-sax"
PERFORMER "Peter Brötzmann"
FLAGS DCP
INDEX 01 00:00:00
FILE "20 - Nr. 20 tenor-sax.wav" WAVE
TRACK 20 AUDIO
TITLE "Nr. 20 tenor-sax"
PERFORMER "Peter Brötzmann"
FLAGS DCP
INDEX 01 00:00:00
FILE "21 - Nr. 21 tarogato, alto-sax.wav" WAVE
TRACK 21 AUDIO
TITLE "Nr. 21 tarogato, alto-sax"
PERFORMER "Peter Brötzmann"
FLAGS DCP
INDEX 01 00:00:00
FILE "22 - Nr. 22 alto-sax.wav" WAVE
TRACK 22 AUDIO
TITLE "Nr. 22 alto-sax"
PERFORMER "Peter Brötzmann"
FLAGS DCP
INDEX 01 00:00:00
FILE "23 - Nr. 23 alto-sax.wav" WAVE
TRACK 23 AUDIO
TITLE "Nr. 23 alto-sax"
PERFORMER "Peter Brötzmann"
FLAGS DCP
INDEX 01 00:00:00
FILE "24 - Nr. 24 e-flat-clarinet.wav" WAVE
TRACK 24 AUDIO
TITLE "Nr. 24 e-flat-clarinet"
PERFORMER "Peter Brötzmann"
FLAGS DCP
INDEX 01 00:00:00
Доп. информация: New CD edition/compilation of the LP FMP 1060 plus 10 additional takes, on basis of the original recording tapes.
По всем вопросам пишите личное сообщение пользователю M0p94ok.
22:18
166
Нет комментариев. Ваш будет первым!