Вы используете незарегистрированную версию компонента "Вкладки"!

Поиск

(Avant-Garde Jazz, Free Improvisation) [CD] Archie Shepp - Stream {1975} - 1989, FLAC (image+.cue), lossless

(Avant-Garde Jazz, Free Improvisation) [CD] Archie Shepp - Stream {1975} - 1989, FLAC (image+.cue), lossless
Треклист:
♦ Archie Shepp - Stream {1975} ♦
Жанр: Avant-Garde Jazz, Free Improvisation
Носитель: CD
Страна-производитель диска: France
Год издания: 1989
Издатель (лейбл): Jazz Hour
Номер по каталогу: JHR 73520
Аудиокодек: FLAC (*.flac)
Тип рипа: image+.cue
Битрейт аудио: lossless
Продолжительность: 01:03:48
Источник (релизер): Рип с диска.
Наличие сканов в содержимом раздачи: да
Треклист:
01. Stream [08:43]
02. Along Came Betty [13:03]
03. Blues For Donald Duck [07:24]
04. U-Jamaa [10:33]
05. Crucificado [11:57]
06. Miss Tomi [12:07]
 
Лог создания рипа
Exact Audio Copy V1.0 beta 3 from 29. August 2011
EAC extraction logfile from 12. January 2014, 23:25
Archie Shepp / Stream
Used drive : ATAPI iHAS124 D Adapter: 1 ID: 0
Read mode : Secure
Utilize accurate stream : Yes
Defeat audio cache : Yes
Make use of C2 pointers : No
Read offset correction : 6
Overread into Lead-In and Lead-Out : No
Fill up missing offset samples with silence : Yes
Delete leading and trailing silent blocks : No
Null samples used in CRC calculations : Yes
Used interface : Native Win32 interface for Win NT & 2000
Used output format : User Defined Encoder
Selected bitrate : 128 kBit/s
Quality : High
Add ID3 tag : No
Command line compressor : C:\Program Files (x86)\Exact Audio Copy\Flac\flac.exe
Additional command line options : -V -8 -T "Genre=%genre%" -T "Artist=%artist%" -T "Title=%title%" -T "Album=%albumtitle%" -T "Date=%year%" -T "Tracknumber=%tracknr%" -T "Comment=%comment%" %source%
TOC of the extracted CD
Track | Start | Length | Start sector | End sector
---------------------------------------------------------
1 | 0:00.32 | 8:43.25 | 32 | 39281
2 | 8:43.57 | 13:03.25 | 39282 | 98031
3 | 21:47.07 | 7:24.08 | 98032 | 131339
4 | 29:11.15 | 10:33.12 | 131340 | 178826
5 | 39:44.27 | 11:57.10 | 178827 | 232611
6 | 51:41.37 | 12:07.38 | 232612 | 287174
Range status and errors
Selected range
Filename D:\1989.Archie Shepp - Stream\Archie Shepp - Stream.wav
Peak level 97.6 %
Extraction speed 9.0 X
Range quality 100.0 %
Test CRC 871F09EB
Copy CRC 871F09EB
Copy OK
No errors occurred
AccurateRip summary
Track 1 accurately ripped (confidence 5) [6CB22602] (AR v2)
Track 2 accurately ripped (confidence 6) [49037D4D] (AR v2)
Track 3 accurately ripped (confidence 6) [92C590E4] (AR v2)
Track 4 accurately ripped (confidence 5) [E4A1A6FF] (AR v2)
Track 5 accurately ripped (confidence 5) [ECCDD137] (AR v2)
Track 6 accurately ripped (confidence 5) [872EA878] (AR v2)
All tracks accurately ripped
End of status report
==== Log checksum 4136C2B23A491A9F7624EDFC4B73CF554D97CD3C8606F3E00EA7471059C15FB1 ====
 
Содержание индексной карты (.CUE)
REM GENRE Jazz
REM DATE 1989
REM DISCID 450EF506
REM COMMENT "ExactAudioCopy v1.0b3"
PERFORMER "Archie Shepp"
TITLE "Stream"
FILE "Archie Shepp - Stream.flac" WAVE
TRACK 01 AUDIO
TITLE "Stream"
PERFORMER "Archie Shepp"
INDEX 00 00:00:00
INDEX 01 00:00:32
TRACK 02 AUDIO
TITLE "Along Came Betty"
PERFORMER "Archie Shepp"
INDEX 00 08:42:20
INDEX 01 08:43:57
TRACK 03 AUDIO
TITLE "Blues For Donald Duck"
PERFORMER "Archie Shepp"
INDEX 00 21:44:70
INDEX 01 21:47:07
TRACK 04 AUDIO
TITLE "U-Jamaa"
PERFORMER "Archie Shepp"
INDEX 00 29:08:47
INDEX 01 29:11:15
TRACK 05 AUDIO
TITLE "Crucificado"
PERFORMER "Archie Shepp"
INDEX 00 39:42:05
INDEX 01 39:44:27
TRACK 06 AUDIO
TITLE "Miss Tomi"
PERFORMER "Archie Shepp"
INDEX 00 51:38:12
INDEX 01 51:41:37
 
Состав
Archie Shepp - ts, ss
Charles Greenlee - tb
Dave Burrell - p
Beaver Harris - dr
Any questions -> support@pro-jazz.com. По всем вопросам пишите -> support@pro-jazz.com
22:17
245
Нет комментариев. Ваш будет первым!