Вы используете незарегистрированную версию компонента "Вкладки"!

Поиск

(Avant-Garde, Free Improvisation, Modern Creative) [CD] Mark Dresser Quintet - Nourishments - 2013 {Clean Feed, CF279CD}, FLAC (tracks+.cue), lossless

(Avant-Garde, Free Improvisation, Modern Creative) [CD] Mark Dresser Quintet - Nourishments - 2013 {Clean Feed, CF279CD}, FLAC (tracks+.cue), lossless
Треклист:
Mark Dresser Quintet
Nourishments Жанр: Avant-Garde, Free Improvisation, Modern Creative
Носитель: CD
Страна-производитель диска: Portugal
Год издания: 2013
Издатель (лейбл): Clean Feed
Номер по каталогу: CF279CD
Аудиокодек: FLAC (*.flac)
Тип рипа: tracks+.cue
Битрейт аудио: lossless
Продолжительность: 73:25
Источник (релизер): dtromp
Наличие сканов в содержимом раздачи: да
Треклист:
01. Not Withstanding (08:24)
02. Canales Rose (14:15)
03. Para Waltz (10:08)
04. Nourishments (12:50)
05. Aperitivo (07:10)
06. Rasaman (10:23)
07. Telemojo (10:15)
 
Лог создания рипа
Exact Audio Copy V1.0 beta 3 from 29. August 2011
EAC extraction logfile from 7. January 2014, 9:44
Mark Dresser Quintet / Nourishments
Used drive : PLEXTOR DVDR PX-860A Adapter: 0 ID: 0
Read mode : Secure
Utilize accurate stream : Yes
Defeat audio cache : Yes
Make use of C2 pointers : No
Read offset correction : 96
Overread into Lead-In and Lead-Out : No
Fill up missing offset samples with silence : Yes
Delete leading and trailing silent blocks : No
Null samples used in CRC calculations : Yes
Used interface : Native Win32 interface for Win NT & 2000
Gap handling : Appended to previous track
Used output format : User Defined Encoder
Selected bitrate : 1024 kBit/s
Quality : High
Add ID3 tag : No
Command line compressor : C:\Program Files\Exact Audio Copy\Flac\flac.exe
Additional command line options : -8 -V -T "ARTIST=%artist%" -T "TITLE=%title%" -T "ALBUM=%albumtitle%" -T "DATE=%year%" -T "TRACKNUMBER=%tracknr%" -T "TOTALTRACKS=%numtracks%" -T "GENRE=%genre%" -T "ALBUMARTIST=%albumartist%" -T "ALBUM ARTIST=%albumartist%" -T "COMMENT=EAC Secure Mode, Test & Copy, AccurateRip, FLAC -8" %source%
TOC of the extracted CD
Track | Start | Length | Start sector | End sector
---------------------------------------------------------
1 | 0:00.00 | 8:24.42 | 0 | 37841
2 | 8:24.42 | 14:15.37 | 37842 | 102003
3 | 22:40.04 | 10:08.70 | 102004 | 147673
4 | 32:48.74 | 12:50.66 | 147674 | 205489
5 | 45:39.65 | 7:10.69 | 205490 | 237808
6 | 52:50.59 | 10:23.27 | 237809 | 284560
7 | 63:14.11 | 10:15.29 | 284561 | 330714
Track 1
Filename O:\DL\Mark Dresser Quintet - Nourishments (2013) [FLAC]\01 - Mark Dresser Quintet.wav
Pre-gap length 0:00:02.00
Peak level 100.0 %
Extraction speed 5.1 X
Track quality 100.0 %
Test CRC 73758187
Copy CRC 73758187
Track not present in AccurateRip database
Copy OK
Track 2
Filename O:\DL\Mark Dresser Quintet - Nourishments (2013) [FLAC]\02 - Canales Rose.wav
Pre-gap length 0:00:02.00
Peak level 100.0 %
Extraction speed 6.4 X
Track quality 100.0 %
Test CRC 97A0FFBE
Copy CRC 97A0FFBE
Track not present in AccurateRip database
Copy OK
Track 3
Filename O:\DL\Mark Dresser Quintet - Nourishments (2013) [FLAC]\03 - Para Waltz.wav
Pre-gap length 0:00:01.98
Peak level 72.1 %
Extraction speed 7.2 X
Track quality 100.0 %
Test CRC 13F8250A
Copy CRC 13F8250A
Track not present in AccurateRip database
Copy OK
Track 4
Filename O:\DL\Mark Dresser Quintet - Nourishments (2013) [FLAC]\04 - Nourishments.wav
Pre-gap length 0:00:02.00
Peak level 100.0 %
Extraction speed 7.7 X
Track quality 99.9 %
Test CRC 22DC4153
Copy CRC 22DC4153
Track not present in AccurateRip database
Copy OK
Track 5
Filename O:\DL\Mark Dresser Quintet - Nourishments (2013) [FLAC]\05 - Aperitivo.wav
Pre-gap length 0:00:02.00
Peak level 100.0 %
Extraction speed 7.7 X
Track quality 99.9 %
Test CRC 0692BA66
Copy CRC 0692BA66
Track not present in AccurateRip database
Copy OK
Track 6
Filename O:\DL\Mark Dresser Quintet - Nourishments (2013) [FLAC]\06 - Rasaman.wav
Pre-gap length 0:00:02.00
Peak level 100.0 %
Extraction speed 9.0 X
Track quality 100.0 %
Test CRC BC7821C9
Copy CRC BC7821C9
Track not present in AccurateRip database
Copy OK
Track 7
Filename O:\DL\Mark Dresser Quintet - Nourishments (2013) [FLAC]\07 - Telemojo.wav
Pre-gap length 0:00:02.00
Peak level 99.6 %
Extraction speed 5.9 X
Track quality 100.0 %
Test CRC A9F51F98
Copy CRC A9F51F98
Track not present in AccurateRip database
Copy OK
None of the tracks are present in the AccurateRip database
No errors occurred
End of status report
---- CUETools DB Plugin V2.1.3
[CTDB TOCID: VXxwsX59sy4FOaRwQr715.PdUUM-] found, Submit result: VXxwsX59sy4FOaRwQr715.PdUUM- has been confirmed
[99bd2b65] (1/1) Accurately ripped
==== Log checksum 283D73F4DBEB1533F94AB17422734C2AA635B0116E6F7F528FE9FE644DD277AC ====
 
Содержание индексной карты (.CUE)
REM GENRE Jazz
REM DATE 2013
REM DISCID 5E113907
REM COMMENT "ExactAudioCopy v1.0b3"
PERFORMER "Mark Dresser Quintet"
TITLE "Nourishments"
FILE "01 - Not Withstanding.wav" WAVE
TRACK 01 AUDIO
TITLE "Not Withstanding"
PERFORMER "Mark Dresser Quintet"
INDEX 01 00:00:00
TRACK 02 AUDIO
TITLE "Canales Rose"
PERFORMER "Mark Dresser Quintet"
INDEX 00 08:22:42
FILE "02 - Canales Rose.wav" WAVE
INDEX 01 00:00:00
TRACK 03 AUDIO
TITLE "Para Waltz"
PERFORMER "Mark Dresser Quintet"
INDEX 00 14:13:38
FILE "03 - Para Waltz.wav" WAVE
INDEX 01 00:00:00
TRACK 04 AUDIO
TITLE "Nourishments"
PERFORMER "Mark Dresser Quintet"
INDEX 00 10:06:70
FILE "04 - Nourishments.wav" WAVE
INDEX 01 00:00:00
TRACK 05 AUDIO
TITLE "Aperitivo"
PERFORMER "Mark Dresser Quintet"
INDEX 00 12:48:66
FILE "05 - Aperitivo.wav" WAVE
INDEX 01 00:00:00
TRACK 06 AUDIO
TITLE "Rasaman"
PERFORMER "Mark Dresser Quintet"
INDEX 00 07:08:69
FILE "06 - Rasaman.wav" WAVE
INDEX 01 00:00:00
TRACK 07 AUDIO
TITLE "Telemojo"
PERFORMER "Mark Dresser Quintet"
INDEX 00 10:21:27
FILE "07 - Telemojo.wav" WAVE
INDEX 01 00:00:00
 
Лог проверки качества
AUDIOCHECKER v2.0 beta (build 457) - by Dester - opdester@freemail.hu
~~~~~~~~~~~~~~~~~~~~~~~~~~~~~~~~~~
-=== DO NOT EDIT THIS FILE! ===-
Path: ...\Mark Dresser Quintet - Nourishments (2013) [FLAC]
1 -=- 01 - Not Withstanding.flac -=- CDDA (100%)
2 -=- 02 - Canales Rose.flac -=- CDDA (99%)
3 -=- 03 - Para Waltz.flac -=- CDDA (100%)
4 -=- 04 - Nourishments.flac -=- CDDA (100%)
5 -=- 05 - Aperitivo.flac -=- CDDA (99%)
6 -=- 06 - Rasaman.flac -=- CDDA (99%)
7 -=- 07 - Telemojo.flac -=- CDDA (100%)
Summary 99,57% CDDA
215078004
Доп. информация: Исправлен тэг трека 01 и cue-файлы. В оригинальном релизе трек 01 ошибочно назывался Mark Dresser Quintet.
 
Об альбоме (сборнике)
A singularly accomplished bass innovator in the fields of jazz, free improvisation and new music, Mark Dresser has devoted himself in recent years to pushing the capacities of solo bass performance even further. In “Nourishments,” his first quintet recording in almost two decades, he shifts his attention back to another longtime creative commitment, ensemble exploration with a team of master improvisers possessing unmistakable sounds. Featuring Rudresh Mahanthappa, Michael Dessen, Denman Maroney, and, in turns, Tom Rainey or Michael Sarin--all leaders in their own right and players deeply versed in Dresser’s music--the quintet delves headlong into his richly suggestive compositions. More than anything, Dresser creates vehicles for beautifully modulated interaction via counterpoint, cyclical organization, timbre sculpting, and all the unexpected combinations of pitch and noise or meter and texture. He developed several pieces with trombonist Michael Dessen while they were in different cities through telematics, fiber optic-facilitated remote performances that have opened up new astounding new possibilities for international collaborations. By whatever means, “Nourishments” is the work of artists who connect musically, emotionally and intellectually with unusual power and grace. This is it!
Clean Feed Records
 
Состав
Rudresh Mahanthappa - alto saxophone
Michael Dessen - trombone
Denman Maroney - hyperpiano
Mark Dresser - double bass
Tom Rainey - drums (tracks 1, 2, 3, 5)
Michael Sarin - drums (tracks 4, 6, 7)
Any questions -> support@pro-jazz.com. По всем вопросам пишите -> support@pro-jazz.com
22:19
178
Нет комментариев. Ваш будет первым!