Вы используете незарегистрированную версию компонента "Вкладки"!

Поиск

(Avant-Garde Jazz, Free Improvisation) [CD] Archie Shepp & Roswell Rudd - Live In New York - 2001, FLAC (tracks+.cue), lossless

(Avant-Garde Jazz, Free Improvisation) [CD] Archie Shepp & Roswell Rudd - Live In New York - 2001, FLAC (tracks+.cue), lossless
Треклист:
♦ Archie Shepp & Roswell Rudd - Live In New York ♦
Жанр: Avant-Garde Jazz, Free Improvisation
Носитель: CD
Страна-производитель диска: USA
Год издания: 2001
Издатель (лейбл): Verve / Universal Music
Номер по каталогу: 440 013 482-2
Аудиокодек: FLAC (*.flac)
Тип рипа: tracks+.cue
Битрейт аудио: lossless
Продолжительность: 01:14:01
Источник (релизер): Рип с диска.
Наличие сканов в содержимом раздачи: да
Треклист:
01. Keep Your Heart Right [02:11]
02. Acute Motelitis [08:23]
03. Steam [07:33]
04. Pazuzu [08:27]
05. We Are The Blues [05:46]
06. Ujamma [09:16]
07. Bamako [05:46]
08. Slide By Slide [11:57]
09. Deja Vu [03:59]
10. Hope No 2 [10:38]
 
Лог создания рипа
Exact Audio Copy V1.0 beta 3 from 29. August 2011
EAC extraction logfile from 13. January 2014, 16:05
Archie Shepp And Roswell Rudd / Live In New York
Used drive : Optiarc DVD RW AD-5200A Adapter: 0 ID: 0
Read mode : Secure
Utilize accurate stream : Yes
Defeat audio cache : Yes
Make use of C2 pointers : No
Read offset correction : 48
Overread into Lead-In and Lead-Out : No
Fill up missing offset samples with silence : Yes
Delete leading and trailing silent blocks : No
Null samples used in CRC calculations : Yes
Used interface : Native Win32 interface for Win NT & 2000
Gap handling : Appended to previous track
Used output format : User Defined Encoder
Selected bitrate : 128 kBit/s
Quality : High
Add ID3 tag : No
Command line compressor : C:\Program Files\Exact Audio Copy\Flac\flac.exe
Additional command line options : -V -8 -T "Genre=%genre%" -T "Artist=%artist%" -T "Title=%title%" -T "Album=%albumtitle%" -T "Date=%year%" -T "Tracknumber=%tracknr%" -T "Comment=%comment%" %source%
TOC of the extracted CD
Track | Start | Length | Start sector | End sector
---------------------------------------------------------
1 | 0:00.00 | 2:11.70 | 0 | 9894
2 | 2:11.70 | 8:23.22 | 9895 | 47641
3 | 10:35.17 | 7:33.40 | 47642 | 81656
4 | 18:08.57 | 8:27.48 | 81657 | 119729
5 | 26:36.30 | 5:46.50 | 119730 | 145729
6 | 32:23.05 | 9:16.40 | 145730 | 187469
7 | 41:39.45 | 5:46.35 | 187470 | 213454
8 | 47:26.05 | 11:57.17 | 213455 | 267246
9 | 59:23.22 | 3:59.10 | 267247 | 285181
10 | 63:22.32 | 10:38.58 | 285182 | 333089
Track 1
Filename F:\2001.Archie Shepp & Roswell Rudd - Live In New York\01. Keep Your Heart Right.wav
Pre-gap length 0:00:02.00
Peak level 88.1 %
Extraction speed 2.2 X
Track quality 100.0 %
Test CRC 03ADDCE6
Copy CRC 03ADDCE6
Accurately ripped (confidence 4) [90997C2E] (AR v2)
Copy OK
Track 2
Filename F:\2001.Archie Shepp & Roswell Rudd - Live In New York\02. Acute Motelitis.wav
Peak level 93.7 %
Extraction speed 2.7 X
Track quality 99.9 %
Test CRC 8CCA436D
Copy CRC 8CCA436D
Accurately ripped (confidence 4) [489B5DB3] (AR v2)
Copy OK
Track 3
Filename F:\2001.Archie Shepp & Roswell Rudd - Live In New York\03. Steam.wav
Pre-gap length 0:00:00.02
Peak level 93.7 %
Extraction speed 3.3 X
Track quality 100.0 %
Test CRC 68996D85
Copy CRC 68996D85
Accurately ripped (confidence 4) [7A622CEC] (AR v2)
Copy OK
Track 4
Filename F:\2001.Archie Shepp & Roswell Rudd - Live In New York\04. Pazuzu.wav
Pre-gap length 0:00:00.02
Peak level 83.2 %
Extraction speed 3.3 X
Track quality 99.9 %
Test CRC AB9FAA5D
Copy CRC AB9FAA5D
Accurately ripped (confidence 4) [9F475282] (AR v2)
Copy OK
Track 5
Filename F:\2001.Archie Shepp & Roswell Rudd - Live In New York\05. We Are The Blues.wav
Pre-gap length 0:00:00.03
Peak level 65.7 %
Extraction speed 3.6 X
Track quality 100.0 %
Test CRC 3C2C88D4
Copy CRC 3C2C88D4
Accurately ripped (confidence 4) [D8BF6F44] (AR v2)
Copy OK
Track 6
Filename F:\2001.Archie Shepp & Roswell Rudd - Live In New York\06. Ujamma.wav
Peak level 93.7 %
Extraction speed 3.8 X
Track quality 100.0 %
Test CRC 2CF3C678
Copy CRC 2CF3C678
Accurately ripped (confidence 4) [CEDE31FF] (AR v2)
Copy OK
Track 7
Filename F:\2001.Archie Shepp & Roswell Rudd - Live In New York\07. Bamako.wav
Peak level 92.2 %
Extraction speed 3.6 X
Track quality 100.0 %
Test CRC 5113AC15
Copy CRC 5113AC15
Accurately ripped (confidence 4) [8BC3A254] (AR v2)
Copy OK
Track 8
Filename F:\2001.Archie Shepp & Roswell Rudd - Live In New York\08. Slide By Slide.wav
Peak level 73.0 %
Extraction speed 3.9 X
Track quality 100.0 %
Test CRC E261D139
Copy CRC E261D139
Accurately ripped (confidence 4) [0915CA91] (AR v2)
Copy OK
Track 9
Filename F:\2001.Archie Shepp & Roswell Rudd - Live In New York\09. Deja Vu.wav
Peak level 93.7 %
Extraction speed 3.6 X
Track quality 100.0 %
Test CRC A8954004
Copy CRC A8954004
Accurately ripped (confidence 4) [E0AC3CF0] (AR v2)
Copy OK
Track 10
Filename F:\2001.Archie Shepp & Roswell Rudd - Live In New York\10. Hope No 2.wav
Pre-gap length 0:00:00.02
Peak level 93.7 %
Extraction speed 3.7 X
Track quality 99.9 %
Test CRC 7DFC1F61
Copy CRC 7DFC1F61
Accurately ripped (confidence 4) [37EB755A] (AR v2)
Copy OK
All tracks accurately ripped
No errors occurred
End of status report
==== Log checksum 41B380ABF8267CEC7E65D2B604B8A1DE50C1F2D157A86FC8F6CD08EDA979B6FE ====
 
Содержание индексной карты (.CUE)
REM GENRE Jazz
REM DATE 2001
REM DISCID 8D11590A
REM COMMENT "ExactAudioCopy v1.0b3"
PERFORMER "Archie Shepp And Roswell Rudd"
TITLE "Live In New York"
FILE "01. Keep Your Heart Right.wav" WAVE
TRACK 01 AUDIO
TITLE "Keep Your Heart Right"
PERFORMER "Archie Shepp And Roswell Rudd"
ISRC FRZ020080560
INDEX 01 00:00:00
FILE "02. Acute Motelitis.wav" WAVE
TRACK 02 AUDIO
TITLE "Acute Motelitis"
PERFORMER "Archie Shepp And Roswell Rudd"
ISRC FRZ020080570
INDEX 01 00:00:00
TRACK 03 AUDIO
TITLE "Steam"
PERFORMER "Archie Shepp And Roswell Rudd"
ISRC FRZ020080580
INDEX 00 08:23:20
FILE "03. Steam.wav" WAVE
INDEX 01 00:00:00
TRACK 04 AUDIO
TITLE "Pazuzu"
PERFORMER "Archie Shepp And Roswell Rudd"
ISRC FRZ020080590
INDEX 00 07:33:38
FILE "04. Pazuzu.wav" WAVE
INDEX 01 00:00:00
TRACK 05 AUDIO
TITLE "We Are The Blues"
PERFORMER "Archie Shepp And Roswell Rudd"
ISRC FRZ020080600
INDEX 00 08:27:45
FILE "05. We Are The Blues.wav" WAVE
INDEX 01 00:00:00
FILE "06. Ujamma.wav" WAVE
TRACK 06 AUDIO
TITLE "Ujamma"
PERFORMER "Archie Shepp And Roswell Rudd"
ISRC FRZ020080610
INDEX 01 00:00:00
FILE "07. Bamako.wav" WAVE
TRACK 07 AUDIO
TITLE "Bamako"
PERFORMER "Archie Shepp And Roswell Rudd"
ISRC FRZ020080620
INDEX 01 00:00:00
FILE "08. Slide By Slide.wav" WAVE
TRACK 08 AUDIO
TITLE "Slide By Slide"
PERFORMER "Archie Shepp And Roswell Rudd"
ISRC FRZ020080630
INDEX 01 00:00:00
FILE "09. Deja Vu.wav" WAVE
TRACK 09 AUDIO
TITLE "Deja Vu"
PERFORMER "Archie Shepp And Roswell Rudd"
ISRC FRZ020080640
INDEX 01 00:00:00
TRACK 10 AUDIO
TITLE "Hope No 2"
PERFORMER "Archie Shepp And Roswell Rudd"
ISRC FRZ020080660
INDEX 00 03:59:08
FILE "10. Hope No 2.wav" WAVE
INDEX 01 00:00:00
 
Состав
Personnel: Roswell Rudd (trombone); Archie Shepp (vocals, tenor saxophone, piano); Amiri Baraka (spoken vocals); Grachan Moncur III (trombone); Reggie Workman (bass); Andrew Cyrille (drums).
Any questions -> support@pro-jazz.com. По всем вопросам пишите -> support@pro-jazz.com
22:19
276
Нет комментариев. Ваш будет первым!