Вы используете незарегистрированную версию компонента "Вкладки"!

Поиск

(Free Jazz, Free Improvisation) Dominic Duval with Herb Robertson / Bob Hovey / Jay Rosen - Asylem - 2001, FLAC (tracks+.cue) lossless

Треклист:
Dominic Duval with Herb Robertson / Bob Hovey / Jay Rosen / Asylem
Жанр: Free Jazz, Free Improvisation
Страна-производитель диска: Великобритания
Год издания диска: 2001
Издатель (лейбл): Leo Records
Номер по каталогу: CD LR 316
Страна: США
Аудио кодек: FLAC (*.flac)
Тип рипа: tracks+.cue
Битрейт аудио: lossless
Продолжительность: 1:01:29
Источник (релизер): другой трекер (cifelius)
Наличие сканов в содержимом раздачи: да
Треклист:
1 Shadow 1 7:44
2 Shadow 2 5:01
3 Shadow 3 5:29
4 The Nightmare 8:30
5 Rectal Parasites 7:59
6 Lullaby 10:09
7 Another Fucking Jazz Quartet 16:34
 
Лог создания рипа
Exact Audio Copy V0.99 prebeta 5 from 4. May 2009
EAC extraction logfile from 2. March 2010, 23:40
Dominic Duval / Asylem
Used drive : HL-DT-STDVD-RAM GH22NS30 Adapter: 1 ID: 1
Read mode : Secure
Utilize accurate stream : Yes
Defeat audio cache : Yes
Make use of C2 pointers : No
Read offset correction : 102
Overread into Lead-In and Lead-Out : No
Fill up missing offset samples with silence : Yes
Delete leading and trailing silent blocks : No
Null samples used in CRC calculations : Yes
Used interface : Installed external ASPI interface
Gap handling : Appended to previous track
Used output format : User Defined Encoder
Selected bitrate : 128 kBit/s
Quality : High
Add ID3 tag : No
Command line compressor : E:\Programmi\Exact Audio Copy\FLAC\FLAC.EXE
Additional command line options : -V -8 -T "artist=%a" -T "title=%t" -T "album=%g" -T "date=%y" -T "tracknumber=%n" -T "genre=%m" %s
TOC of the extracted CD
Track | Start | Length | Start sector | End sector
---------------------------------------------------------
1 | 0:00.00 | 7:44.41 | 0 | 34840
2 | 7:44.41 | 5:01.37 | 34841 | 57452
3 | 12:46.03 | 5:29.44 | 57453 | 82171
4 | 18:15.47 | 8:30.27 | 82172 | 120448
5 | 26:45.74 | 7:59.24 | 120449 | 156397
6 | 34:45.23 | 10:09.51 | 156398 | 202123
7 | 44:54.74 | 16:34.27 | 202124 | 276700
Track 1
Filename C:\Documents and Settings\user\Desktop\Dominic Duval- Asylem (2001) [FLAC] {Leo}\01 - Shadow 1.wav
Pre-gap length 0:00:02.00
Peak level 100.0 %
Track quality 99.9 %
Test CRC D89144A7
Copy CRC D89144A7
Copy OK
Track 2
Filename C:\Documents and Settings\user\Desktop\Dominic Duval- Asylem (2001) [FLAC] {Leo}\02 - Shadow 2.wav
Pre-gap length 0:00:01.46
Peak level 98.8 %
Track quality 99.9 %
Test CRC 8D07352F
Copy CRC 8D07352F
Copy OK
Track 3
Filename C:\Documents and Settings\user\Desktop\Dominic Duval- Asylem (2001) [FLAC] {Leo}\03 - Shadow 3.wav
Pre-gap length 0:00:01.45
Peak level 100.0 %
Track quality 100.0 %
Test CRC 38E92AD1
Copy CRC 38E92AD1
Copy OK
Track 4
Filename C:\Documents and Settings\user\Desktop\Dominic Duval- Asylem (2001) [FLAC] {Leo}\04 - The Nightmare.wav
Pre-gap length 0:00:01.45
Peak level 92.6 %
Track quality 99.9 %
Test CRC 16A2EC74
Copy CRC 16A2EC74
Copy OK
Track 5
Filename C:\Documents and Settings\user\Desktop\Dominic Duval- Asylem (2001) [FLAC] {Leo}\05 - Rectal Parasites.wav
Pre-gap length 0:00:01.45
Peak level 100.0 %
Track quality 100.0 %
Test CRC 561D972C
Copy CRC 561D972C
Copy OK
Track 6
Filename C:\Documents and Settings\user\Desktop\Dominic Duval- Asylem (2001) [FLAC] {Leo}\06 - Lullaby.wav
Pre-gap length 0:00:01.45
Peak level 100.0 %
Track quality 99.9 %
Test CRC 8AD2FFE6
Copy CRC 8AD2FFE6
Copy OK
Track 7
Filename C:\Documents and Settings\user\Desktop\Dominic Duval- Asylem (2001) [FLAC] {Leo}\07 - Another Fucking Jazz Quartet.wav
Pre-gap length 0:00:01.45
Peak level 100.0 %
Track quality 100.0 %
Test CRC 74CF927D
Copy CRC 74CF927D
Copy OK
No errors occurred
End of status report
 
Содержание индексной карты (.CUE)
REM GENRE Jazz
REM DATE 2001
REM DISCID 6E0E6907
REM COMMENT "ExactAudioCopy v0.99pb5"
PERFORMER "Dominic Duval"
TITLE "Asylem"
FILE "01 - Shadow 1.wav" WAVE
TRACK 01 AUDIO
TITLE "Shadow 1"
PERFORMER "Dominic Duval"
FLAGS DCP
INDEX 01 00:00:00
TRACK 02 AUDIO
TITLE "Shadow 2"
PERFORMER "Dominic Duval"
FLAGS DCP
INDEX 00 07:42:70
FILE "02 - Shadow 2.wav" WAVE
INDEX 01 00:00:00
TRACK 03 AUDIO
TITLE "Shadow 3"
PERFORMER "Dominic Duval"
FLAGS DCP
INDEX 00 04:59:67
FILE "03 - Shadow 3.wav" WAVE
INDEX 01 00:00:00
TRACK 04 AUDIO
TITLE "The Nightmare"
PERFORMER "Dominic Duval"
FLAGS DCP
INDEX 00 05:27:74
FILE "04 - The Nightmare.wav" WAVE
INDEX 01 00:00:00
TRACK 05 AUDIO
TITLE "Rectal Parasites"
PERFORMER "Dominic Duval"
FLAGS DCP
INDEX 00 08:28:57
FILE "05 - Rectal Parasites.wav" WAVE
INDEX 01 00:00:00
TRACK 06 AUDIO
TITLE "Lullaby"
PERFORMER "Dominic Duval"
FLAGS DCP
INDEX 00 07:57:54
FILE "06 - Lullaby.wav" WAVE
INDEX 01 00:00:00
TRACK 07 AUDIO
TITLE "Another Fucking Jazz Quartet"
PERFORMER "Dominic Duval"
FLAGS DCP
INDEX 00 10:08:06
FILE "07 - Another Fucking Jazz Quartet.wav" WAVE
INDEX 01 00:00:00
 
Лог проверки качества
AUDIOCHECKER v2.0 beta (build 457) - by Dester - opdester@freemail.hu
~~~~~~~~~~~~~~~~~~~~~~~~~~~~~~~~~~
-=== DO NOT EDIT THIS FILE! ===-
Path: ...\asylem 2001
1 -=- 01 - Shadow 1.flac -=- CDDA (100%)
2 -=- 02 - Shadow 2.flac -=- CDDA (100%)
3 -=- 03 - Shadow 3.flac -=- CDDA (100%)
4 -=- 04 - The Nightmare.flac -=- CDDA (99%)
5 -=- 05 - Rectal Parasites.flac -=- CDDA (100%)
6 -=- 06 - Lullaby.flac -=- CDDA (100%)
7 -=- 07 - Another Fucking Jazz Quartet.flac -=- CDDA (100%)
Summary 99,86% CDDA
4549268
 
Состав
Dominic Duval bass, electronics, acoustical application
Herb Robertson trumpet, voice, whistle, flute harp
Bob Hovey trombone, turntables, voice, foreign language
Jay Rosen drums, percussion, bells, whistle, shark, egg beater
По всем вопросам пишите личное сообщение пользователю M0p94ok.
09:26
166
Нет комментариев. Ваш будет первым!