Вы используете незарегистрированную версию компонента "Вкладки"!

Поиск

(Jazz / Avant-Garde) Anthony Braxton, John Lindberg - Six Duets (1982) - 1997 (CECMA, CD004-2, Italy), APE (image+.cue) lossless

(Jazz / Avant-Garde) Anthony Braxton, John Lindberg - Six Duets (1982) - 1997 (CECMA, CD004-2, Italy), APE (image+.cue) lossless
Треклист:
Anthony Braxton, John Lindberg / Six Duets (1982)
Жанр: Jazz / Avant-Garde
Страна-производитель диска: Italy
Год издания диска: 1997
Издатель (лейбл): CECMA
Номер по каталогу: CD004-2
Страна: USA
Аудио кодек: APE (*.ape)
Тип рипа: image+.cue
Битрейт аудио: lossless
Продолжительность: 47:17
Источник (релизер): basa005
Наличие сканов в содержимом раздачи: да
Треклист:
1. Composition No 69B 5:14
- Anthony Braxton
2. Composition No 69A 8:19
- Anthony Braxton
3. Composition No 23J 7:11
- Anthony Braxton
4. Composition No 6A 6:36
- Anthony Braxton
5. Composition No 69P 3:45
- Anthony Braxton
6. Composition No 6N 7:16
- Anthony Braxton
Bonus tracks:
7. Four - Take 1 5:55
- Miles Davis
8. Four - Take 2 3:01
- Miles Davis
 
Лог создания рипа
Exact Audio Copy V0.99 prebeta 4 from 23. January 2008
EAC extraction logfile from 7. March 2011, 15:53
Anthony Braxton, John Lindberg / Six Duets
Used drive : ATAPI DVD A DH16A1L Adapter: 1 ID: 0
Read mode : Secure
Utilize accurate stream : Yes
Defeat audio cache : Yes
Make use of C2 pointers : No
Read offset correction : 6
Overread into Lead-In and Lead-Out : No
Fill up missing offset samples with silence : Yes
Delete leading and trailing silent blocks : No
Null samples used in CRC calculations : Yes
Used interface : Native Win32 interface for Win NT & 2000
Used output format : Internal WAV Routines
Sample format : 44.100 Hz; 16 Bit; Stereo
TOC of the extracted CD
Track | Start | Length | Start sector | End sector
---------------------------------------------------------
1 | 0:00.00 | 5:12.10 | 0 | 23409
2 | 5:12.10 | 8:19.10 | 23410 | 60844
3 | 13:31.20 | 7:11.32 | 60845 | 93201
4 | 20:42.52 | 6:36.02 | 93202 | 122903
5 | 27:18.54 | 3:45.18 | 122904 | 139796
6 | 31:03.72 | 7:16.58 | 139797 | 172554
7 | 38:20.55 | 5:55.40 | 172555 | 199219
8 | 44:16.20 | 3:01.07 | 199220 | 212801
Range status and errors
Selected range
Filename C:\avaxhome\Anthony Braxton, John Lindberg - Six Duets.wav
Peak level 99.9 %
Range quality 100.0 %
Copy CRC 94C98669
Copy OK
No errors occurred
AccurateRip summary
Track 1 not present in database
Track 2 not present in database
Track 3 not present in database
Track 4 not present in database
Track 5 not present in database
Track 6 not present in database
Track 7 not present in database
Track 8 not present in database
None of the tracks are present in the AccurateRip database
End of status report
 
Содержание индексной карты (.CUE)
REM DISCID 5C0B1508
REM COMMENT "ExactAudioCopy v0.99pb4"
PERFORMER "Anthony Braxton, John Lindberg"
TITLE "Six Duets"
FILE "Anthony Braxton, John Lindberg - Six Duets.APE" WAVE
TRACK 01 AUDIO
TITLE "Composition No 69B"
PERFORMER "Anthony Braxton, John Lindberg"
INDEX 01 00:00:00
TRACK 02 AUDIO
TITLE "Composition No 69A"
PERFORMER "Anthony Braxton, John Lindberg"
INDEX 01 05:12:10
TRACK 03 AUDIO
TITLE "Composition No 23J"
PERFORMER "Anthony Braxton, John Lindberg"
INDEX 00 13:31:15
INDEX 01 13:31:20
TRACK 04 AUDIO
TITLE "Composition No 6A"
PERFORMER "Anthony Braxton, John Lindberg"
INDEX 01 20:42:52
TRACK 05 AUDIO
TITLE "Composition No 69P"
PERFORMER "Anthony Braxton, John Lindberg"
INDEX 01 27:18:54
TRACK 06 AUDIO
TITLE "Composition No 6N"
PERFORMER "Anthony Braxton, John Lindberg"
INDEX 00 31:03:67
INDEX 01 31:03:72
TRACK 07 AUDIO
TITLE "Four - Take 1"
PERFORMER "Anthony Braxton, John Lindberg"
INDEX 01 38:20:55
TRACK 08 AUDIO
TITLE "Four - Take 2"
PERFORMER "Anthony Braxton, John Lindberg"
INDEX 01 44:16:20
Доп. информация:
Великолепное сочетание в дуэте Брэкстона и его ученика Джона Линдберга,
который создаёт чувственный фон на контрабасе для брэкстоновского
церебрального звучания инструментов и самого произведения.
Recorded at NATALI SOUND STUDIOS, Florence, Italy, July 19, 1982
© 1982 CECMA
© 1997 CECMA
Made in Italy by PHONOCOMP
Catalog No.: CD004-2
Barcode: 8 012786 000428
 
Состав
Anthony Braxton - alto saxophone, E-Flat soprano saxophone, clarinet
John Lindberg - bass
Any questions -> support@pro-jazz.com. По всем вопросам пишите -> support@pro-jazz.com
09:27
208
Нет комментариев. Ваш будет первым!