Поиск

(free jazz) Michel Godard & Gavino Murgia - Deep - 2007, FLAC (tracks+.cue) lossless

(free jazz) Michel Godard & Gavino Murgia - Deep - 2007, FLAC (tracks+.cue) lossless
Треклист:
Michel Godard & Gavino Murgia / Deep
Жанр: free jazz
Страна-производитель диска: Germany
Год издания диска: 2007
Издатель (лейбл): Intuition
Номер по каталогу: 34152
Аудио кодек: FLAC (*.flac)
Тип рипа: tracks+.cue
Битрейт аудио: lossless
Продолжительность: 51:47
Источник (релизер): CD
Наличие сканов в содержимом раздачи: нет
Треклист:
1 Ambre Godard 5:18
2 Adarre Murgia 5:12
3 Gorropu Murgia 4:29
4 Chloris Godard 3:47
5 Deep Godard 3:50
6 Pane Caiente Murgia 5:10
7 Abba Mama Murgia 5:06
8 Choying Godard 5:10
9 Intrighinu Murgia 4:04
10 Les Sorcières Godard 4:33
11 Anninia Murgia 5:03
 
Лог создания рипа
Exact Audio Copy V1.0 beta 1 from 15. November 2010
EAC extraction logfile from 18. February 2011, 16:24
Michel Godard, Gavino Murgia / Deep
Used drive : MATSHITADVD-RAM UJ-850S Adapter: 1 ID: 0
Read mode : Secure
Utilize accurate stream : Yes
Defeat audio cache : Yes
Make use of C2 pointers : No
Read offset correction : 102
Overread into Lead-In and Lead-Out : No
Fill up missing offset samples with silence : Yes
Delete leading and trailing silent blocks : No
Null samples used in CRC calculations : Yes
Used interface : Native Win32 interface for Win NT & 2000
Gap handling : Appended to previous track
Used output format : User Defined Encoder
Selected bitrate : 1024 kBit/s
Quality : High
Add ID3 tag : No
Command line compressor : C:\Program Files\Exact Audio Copy\Flac\flac.exe
Additional command line options : -V -5 -T "artist=%a" -T "title=%t" -T "album=%g" -T "date=%y" -T "tracknumber=%n" -T "genre=%m" %s
TOC of the extracted CD
Track | Start | Length | Start sector | End sector
---------------------------------------------------------
1 | 0:00.00 | 5:18.13 | 0 | 23862
2 | 5:18.13 | 5:12.20 | 23863 | 47282
3 | 10:30.33 | 4:29.13 | 47283 | 67470
4 | 14:59.46 | 3:47.52 | 67471 | 84547
5 | 18:47.23 | 3:50.42 | 84548 | 101839
6 | 22:37.65 | 5:10.03 | 101840 | 125092
7 | 27:47.68 | 5:06.29 | 125093 | 148071
8 | 32:54.22 | 5:10.52 | 148072 | 171373
9 | 38:04.74 | 4:04.29 | 171374 | 189702
10 | 42:09.28 | 4:33.72 | 189703 | 210249
11 | 46:43.25 | 5:03.26 | 210250 | 233000
Track 1
Filename E:\utorrent\Godard - Deep\(01) Ambre - Michel Godard, Gavino Murgia.wav
Pre-gap length 0:00:02.00
Peak level 99.3 %
Extraction speed 0.9 X
Track quality 100.0 %
Test CRC 73412863
Copy CRC 73412863
Accurately ripped (confidence 4) [45B2A032]
Copy OK
Track 2
Filename E:\utorrent\Godard - Deep\(02) Adarre - Michel Godard, Gavino Murgia.wav
Pre-gap length 0:02:34.69
Peak level 100.0 %
Extraction speed 1.0 X
Track quality 100.0 %
Test CRC 6FBFA12E
Copy CRC 6FBFA12E
Accurately ripped (confidence 4) [5D886A5F]
Copy OK
Track 3
Filename E:\utorrent\Godard - Deep\(03) Gorropu - Michel Godard, Gavino Murgia.wav
Pre-gap length 0:02:32.68
Peak level 99.3 %
Extraction speed 1.0 X
Track quality 100.0 %
Test CRC 98709B9B
Copy CRC 98709B9B
Accurately ripped (confidence 4) [02D4B63B]
Copy OK
Track 4
Filename E:\utorrent\Godard - Deep\(04) Chloris - Michel Godard, Gavino Murgia.wav
Peak level 98.9 %
Extraction speed 1.0 X
Track quality 100.0 %
Test CRC 16A57FD2
Copy CRC 16A57FD2
Accurately ripped (confidence 4) [313AB6EE]
Copy OK
Track 5
Filename E:\utorrent\Godard - Deep\(05) Deep - Michel Godard, Gavino Murgia.wav
Pre-gap length 0:00:02.00
Peak level 99.7 %
Extraction speed 1.0 X
Track quality 100.0 %
Test CRC B47F3A60
Copy CRC B47F3A60
Accurately ripped (confidence 4) [7070D215]
Copy OK
Track 6
Filename E:\utorrent\Godard - Deep\(06) Pane Caiente - Michel Godard, Gavino Murgia.wav
Pre-gap length 0:00:02.00
Peak level 99.5 %
Extraction speed 1.1 X
Track quality 100.0 %
Test CRC EE19BFE9
Copy CRC EE19BFE9
Accurately ripped (confidence 4) [1CAB884A]
Copy OK
Track 7
Filename E:\utorrent\Godard - Deep\(07) Abba Mamma - Michel Godard, Gavino Murgia.wav
Pre-gap length 0:02:28.45
Peak level 99.5 %
Extraction speed 1.1 X
Track quality 100.0 %
Test CRC 69E7FB2B
Copy CRC 69E7FB2B
Accurately ripped (confidence 4) [A9F173D8]
Copy OK
Track 8
Filename E:\utorrent\Godard - Deep\(08) Choying - Michel Godard, Gavino Murgia.wav
Pre-gap length 0:02:29.49
Peak level 99.6 %
Extraction speed 1.2 X
Track quality 100.0 %
Test CRC D84835B5
Copy CRC D84835B5
Accurately ripped (confidence 4) [F7CBAA11]
Copy OK
Track 9
Filename E:\utorrent\Godard - Deep\(09) Intrighinu - Michel Godard, Gavino Murgia.wav
Pre-gap length 0:05:10.51
Peak level 99.4 %
Extraction speed 1.0 X
Track quality 99.9 %
Test CRC 909409E2
Copy CRC 909409E2
Accurately ripped (confidence 4) [5B6DCB46]
Copy OK
Track 10
Filename E:\utorrent\Godard - Deep\(10) Les Sorcieres - Michel Godard, Gavino Murgia.wav
Pre-gap length 0:04:04.28
Peak level 99.3 %
Extraction speed 1.1 X
Track quality 99.9 %
Test CRC 9075B042
Copy CRC 9075B042
Accurately ripped (confidence 4) [663E13BA]
Copy OK
Track 11
Filename E:\utorrent\Godard - Deep\(11) Anninia - Michel Godard, Gavino Murgia.wav
Pre-gap length 0:04:33.71
Peak level 100.0 %
Extraction speed 1.2 X
Track quality 100.0 %
Test CRC 29399112
Copy CRC 29399112
Accurately ripped (confidence 4) [E2BBE94C]
Copy OK
All tracks accurately ripped
No errors occurred
End of status report
 
Содержание индексной карты (.CUE)
REM GENRE Jazz
REM DATE 2007
REM DISCID 940C220B
REM COMMENT "ExactAudioCopy v1.0b1"
PERFORMER "Michel Godard, Gavino Murgia"
TITLE "Deep"
FILE "(01) Ambre - Michel Godard, Gavino Murgia.wav" WAVE
TRACK 01 AUDIO
TITLE "Ambre"
PERFORMER "Michel Godard, Gavino Murgia"
INDEX 01 00:00:00
TRACK 02 AUDIO
TITLE "Adarre"
PERFORMER "Michel Godard, Gavino Murgia"
INDEX 00 02:43:19
FILE "(02) Adarre - Michel Godard, Gavino Murgia.wav" WAVE
INDEX 01 00:00:00
TRACK 03 AUDIO
TITLE "Gorropu"
PERFORMER "Michel Godard, Gavino Murgia"
INDEX 00 02:39:27
FILE "(03) Gorropu - Michel Godard, Gavino Murgia.wav" WAVE
INDEX 01 00:00:00
FILE "(04) Chloris - Michel Godard, Gavino Murgia.wav" WAVE
TRACK 04 AUDIO
TITLE "Chloris"
PERFORMER "Michel Godard, Gavino Murgia"
INDEX 01 00:00:00
TRACK 05 AUDIO
TITLE "Deep"
PERFORMER "Michel Godard, Gavino Murgia"
INDEX 00 03:45:52
FILE "(05) Deep - Michel Godard, Gavino Murgia.wav" WAVE
INDEX 01 00:00:00
TRACK 06 AUDIO
TITLE "Pane Caiente"
PERFORMER "Michel Godard, Gavino Murgia"
INDEX 00 03:48:42
FILE "(06) Pane Caiente - Michel Godard, Gavino Murgia.wav" WAVE
INDEX 01 00:00:00
TRACK 07 AUDIO
TITLE "Abba Mamma"
PERFORMER "Michel Godard, Gavino Murgia"
INDEX 00 02:41:33
FILE "(07) Abba Mamma - Michel Godard, Gavino Murgia.wav" WAVE
INDEX 01 00:00:00
TRACK 08 AUDIO
TITLE "Choying"
PERFORMER "Michel Godard, Gavino Murgia"
INDEX 00 02:36:55
FILE "(08) Choying - Michel Godard, Gavino Murgia.wav" WAVE
INDEX 01 00:00:00
TRACK 09 AUDIO
TITLE "Intrighinu"
PERFORMER "Michel Godard, Gavino Murgia"
INDEX 00 00:00:01
FILE "(09) Intrighinu - Michel Godard, Gavino Murgia.wav" WAVE
INDEX 01 00:00:00
TRACK 10 AUDIO
TITLE "Les Sorcieres"
PERFORMER "Michel Godard, Gavino Murgia"
INDEX 00 00:00:01
FILE "(10) Les Sorcieres - Michel Godard, Gavino Murgia.wav" WAVE
INDEX 01 00:00:00
TRACK 11 AUDIO
TITLE "Anninia"
PERFORMER "Michel Godard, Gavino Murgia"
INDEX 00 00:00:01
FILE "(11) Anninia - Michel Godard, Gavino Murgia.wav" WAVE
INDEX 01 00:00:00
По всем вопросам пишите личное сообщение пользователю M0p94ok.
09:26
154
Нет комментариев. Ваш будет первым!