Поиск

(Free Jazz, Free Improvisation) Dennis Gonzalez Yells At Eels (featuring Louis Moholo-Moholo) - Cape of Storms {Ayler Records aylCD-117} - 2010, FLAC (tracks+.cue), lossless

Треклист:
Dennis González Yells At Eels (featuring Louis Moholo-Moholo) / Cape of Storms
Жанр: Free Jazz, Free Improvisation
Год издания: 2010
Издатель (лейбл): Ayler Records
Номер по каталогу: aylCD-117
Аудиокодек: FLAC (*.flac)
Тип рипа: tracks+.cue
Битрейт аудио: lossless
Продолжительность: 01:10:40
Источник (релизер): Blogspot (soyo)
Наличие сканов в содержимом раздачи: нет
Треклист:
01. Document for Walt Dickerson (Dennis González) 7:21
02. Interlude: A Desert Hidden in the Waves (Aaron González) 5:20
03. Tag (Jason Yarde) 6:53
04. Interlude: Gecka (Dennis González) 4:31
05. Cape of Storms I (Dennis González) 6:09
06. Interlude: Internal Dialogue, Eternal Pulse (Stefan González) 5:37
07. Tranquilidad Alborotadora I (Stefan González) 6:35
08. Cape of Storms II (Dennis González) 12:02
09. Tranquilidad Alborotadora II (Stefan González) 8:04
10. Snakehandler (Dennis González) 8:03
Recorded February 9, 10, and 13, 2010 by Dennis González in Dallas and New Orleans.
Personnel:
Dennis González - C trumpet, Bb cornet, gongs, sleigh bells, shakers, pao de chuva, goat hooves
Aaron González - contrabass
Louis Moholo-Moholo - drums, voice
Stefan González - vibraphone, drums, congas, balafon, djembe, roto-toms, temple bells, gongs, school bells, splash cymbals
Tim Green - tenor saxophone, tambourine
 
Лог создания рипа
Exact Audio Copy V0.99 prebeta 5 from 4. May 2009
Archivo Log de extracciones desde 1. Marzo 2012, 21:12
Dennis González Yells At Eels / Cape of Storms
Usar unidad : Optiarc DVD RW AD-7190A Adapter: 0 ID: 1
Modo de Lectura : Seguro
Utilizar Corriente Exacta : Sí
Descartar Audio caché : No
Utilizar los punteros C2 : Sí
Corrección de Desplazamiento de Lectura : 6
Sobreleer tanto en Lead-In como en Lead-Out : No
Rellenar las muestras faltantes con silencios : Sí
Eliminar silencios inicial y final : No
Se han usado muestras nulas en los cálculos CRC : Sí
Interfaz usada : Interfaz ASPI externo instalado
Gestión de Gaps : Añadido a la pista previa
Formato de Salida utilizado : Compresor definido por el usuario
Bitrate seleccionado : 1024 kBit/s
Calidad : Alta
Añadir Etiqueta ID3 : No
Compresor de linea de comandos : C:\Archivos de programa\Exact Audio Copy\FLAC\flac.exe
Opciones adicionales en línea de comandos : -6 -V -T "ARTIST=%a" -T "TITLE=%t" -T "ALBUM=%g" -T "DATE=%y" -T "TRACKNUMBER=%n" -T "GENRE=%m" -T "COMMENT=%e" %s -o %d
TOC del CD extraido
Pista | Inicio | Duración | Sector inicial | Sector final
-------------------------------------------------------------
1 | 0:00.00 | 7:21.39 | 0 | 33113
2 | 7:21.39 | 5:20.61 | 33114 | 57174
3 | 12:42.25 | 6:53.25 | 57175 | 88174
4 | 19:35.50 | 4:31.54 | 88175 | 108553
5 | 24:07.29 | 6:09.36 | 108554 | 136264
6 | 30:16.65 | 5:37.30 | 136265 | 161569
7 | 35:54.20 | 6:35.59 | 161570 | 191253
8 | 42:30.04 | 12:02.43 | 191254 | 245446
9 | 54:32.47 | 8:04.40 | 245447 | 281786
10 | 62:37.12 | 8:03.29 | 281787 | 318040
Pista 1
Nombre de Archivo C:\Documents and Settings\Administrador\Mis documentos\DGC\01.Document for Walt Dickerson.wav
Longitud Pre-gap 0:00:02.00
Nivel Pico 97.7 %
Calidad de Pista 100.0 %
Copiar CRC 109B2A61
Pista no presente en la base de datos AccurateRip
Copia OK
Pista 2
Nombre de Archivo C:\Documents and Settings\Administrador\Mis documentos\DGC\02.Interlude- A Desert Hidden in the Waves.wav
Longitud Pre-gap 0:00:02.00
Nivel Pico 97.7 %
Calidad de Pista 100.0 %
Copiar CRC BEED52BD
Pista no presente en la base de datos AccurateRip
Copia OK
Pista 3
Nombre de Archivo C:\Documents and Settings\Administrador\Mis documentos\DGC\03.Tag.wav
Longitud Pre-gap 0:00:02.00
Nivel Pico 97.7 %
Calidad de Pista 100.0 %
Copiar CRC 8EF375F7
Pista no presente en la base de datos AccurateRip
Copia OK
Pista 4
Nombre de Archivo C:\Documents and Settings\Administrador\Mis documentos\DGC\04.Interlude- Gecka.wav
Longitud Pre-gap 0:00:02.00
Nivel Pico 97.7 %
Calidad de Pista 100.0 %
Copiar CRC 76CEE690
Pista no presente en la base de datos AccurateRip
Copia OK
Pista 5
Nombre de Archivo C:\Documents and Settings\Administrador\Mis documentos\DGC\05.Cape of Storms I.wav
Longitud Pre-gap 0:00:02.00
Nivel Pico 97.7 %
Calidad de Pista 100.0 %
Copiar CRC 72F02FEB
Pista no presente en la base de datos AccurateRip
Copia OK
Pista 6
Nombre de Archivo C:\Documents and Settings\Administrador\Mis documentos\DGC\06.Interlude- Internal Dialogue, Eternal Pulse.wav
Longitud Pre-gap 0:00:02.00
Nivel Pico 97.7 %
Calidad de Pista 100.0 %
Copiar CRC 57E46525
Pista no presente en la base de datos AccurateRip
Copia OK
Pista 7
Nombre de Archivo C:\Documents and Settings\Administrador\Mis documentos\DGC\07.Tranquilidad Alborotadora I.wav
Longitud Pre-gap 0:00:02.00
Nivel Pico 97.7 %
Calidad de Pista 100.0 %
Copiar CRC A593D8C6
Pista no presente en la base de datos AccurateRip
Copia OK
Pista 8
Nombre de Archivo C:\Documents and Settings\Administrador\Mis documentos\DGC\08.Cape of Storms II.wav
Longitud Pre-gap 0:00:02.00
Nivel Pico 97.7 %
Calidad de Pista 99.9 %
Copiar CRC B60A2F28
Pista no presente en la base de datos AccurateRip
Copia OK
Pista 9
Nombre de Archivo C:\Documents and Settings\Administrador\Mis documentos\DGC\09.Tranquilidad Alborotadora II.wav
Longitud Pre-gap 0:00:02.00
Nivel Pico 97.7 %
Calidad de Pista 100.0 %
Copiar CRC 60E82070
Pista no presente en la base de datos AccurateRip
Copia OK
Pista 10
Nombre de Archivo C:\Documents and Settings\Administrador\Mis documentos\DGC\10.Snakehandler.wav
Longitud Pre-gap 0:00:02.00
Nivel Pico 97.7 %
Calidad de Pista 100.0 %
Copiar CRC AD91D71E
Pista no presente en la base de datos AccurateRip
Copia OK
Ninguna de las pistas está presente en la base de datos AccurateRip
Sin Errores
Final del Informe
 
Содержание индексной карты (.CUE)
REM GENRE Jazz
REM DATE 2010
REM DISCID 9610900A
REM COMMENT "ExactAudioCopy v0.99pb5"
PERFORMER "Dennis Gonzalez Yells At Eels"
TITLE "Cape of Storms"
FILE "01.Document for Walt Dickerson.wav" WAVE
TRACK 01 AUDIO
TITLE "Document for Walt Dickerson"
PERFORMER "Dennis Gonzalez Yells At Eels"
INDEX 01 00:00:00
TRACK 02 AUDIO
TITLE "Interlude: A Desert Hidden in the Waves"
PERFORMER "Dennis Gonzalez Yells At Eels"
INDEX 00 07:19:39
FILE "02.Interlude- A Desert Hidden in the Waves.wav" WAVE
INDEX 01 00:00:00
TRACK 03 AUDIO
TITLE "Tag"
PERFORMER "Dennis Gonzalez Yells At Eels"
INDEX 00 05:18:61
FILE "03.Tag.wav" WAVE
INDEX 01 00:00:00
TRACK 04 AUDIO
TITLE "Interlude: Gecka"
PERFORMER "Dennis Gonzalez Yells At Eels"
INDEX 00 06:51:25
FILE "04.Interlude- Gecka.wav" WAVE
INDEX 01 00:00:00
TRACK 05 AUDIO
TITLE "Cape of Storms I"
PERFORMER "Dennis Gonzalez Yells At Eels"
INDEX 00 04:29:54
FILE "05.Cape of Storms I.wav" WAVE
INDEX 01 00:00:00
TRACK 06 AUDIO
TITLE "Interlude: Internal Dialogue, Eternal Pulse"
PERFORMER "Dennis Gonzalez Yells At Eels"
INDEX 00 06:07:36
FILE "06.Interlude- Internal Dialogue, Eternal Pulse.wav" WAVE
INDEX 01 00:00:00
TRACK 07 AUDIO
TITLE "Tranquilidad Alborotadora I"
PERFORMER "Dennis Gonzalez Yells At Eels"
INDEX 00 05:35:30
FILE "07.Tranquilidad Alborotadora I.wav" WAVE
INDEX 01 00:00:00
TRACK 08 AUDIO
TITLE "Cape of Storms II"
PERFORMER "Dennis Gonzalez Yells At Eels"
INDEX 00 06:33:59
FILE "08.Cape of Storms II.wav" WAVE
INDEX 01 00:00:00
TRACK 09 AUDIO
TITLE "Tranquilidad Alborotadora II"
PERFORMER "Dennis Gonzalez Yells At Eels"
INDEX 00 12:00:43
FILE "09.Tranquilidad Alborotadora II.wav" WAVE
INDEX 01 00:00:00
TRACK 10 AUDIO
TITLE "Snakehandler"
PERFORMER "Dennis Gonzalez Yells At Eels"
INDEX 00 08:02:40
FILE "10.Snakehandler.wav" WAVE
INDEX 01 00:00:00
 
Об альбоме
"Dennis had just finished mixing the music on Cape of Storms when he sent me the tapes. A couple of emails later, it was decided that this should be out as soon as possible. The trio of Dennis and sons Aaron and Stefan sounds better than ever and the meeting with legendary South African drummer Louis Moholo-Moholo is a special treat. Long-time collaborator Tim Green joins in and here we go for a rewarding hour of stellar performances by this augmented Yells at Eels. Enjoy!" -- Ayler
 
JazzWord
Dennis González Yells At Eels - Cape of Storms
Ken Waxman, JazzWord
Over the past two decades Dallas-based trumpeter Dennis González has evolved two strategies in order to play advanced improvised music. Since he was the only so-called avant-grade musician in the city, he frequently invites out-of-town stylists to play with him. The other part of his plan has taken place literally on his home turf: he’s grown his own improvisers. The Yells at Eels’ band demonstrates this, since its rhythm section is made up of González’s sons, Aaron on double bass and Stefan on vibes and percussion.
Cape of Storms’ 10 sprightly, well-played tunes demonstrate the benefits of this policy, while confirming that the González siblings are on board for musical not nepotistic reasons. As an added bonus the González tribe is shored up by two distinguished visitors: Freebop saxophonist Tim Green from New Orleans and legendary drummer Louis Moholo-Moholo from Cape Town, South Africa. Thick muscular pacing from the bassist sets up many of the tracks, while Stefan González’s clattering vibraphone refraction, kalimba-like plucks or strokes from the djembe or other ancillary percussion, define many compositions’ rhythmic centres as effectively as Moholo-Moholo’s more traditional Jazz-based drumming.
For instance the undulating beat created by the three rhythm players on British saxophonist Jason Yarde’s “Tag” – the CD’s single tune not written by one of the Gonzálezes – matches Aaron González’s strums and steady walking with ruffs and flams from both drummers and finally brassy, triplet-leaden trumpet runs from Dennis González. Eventually the theme is resolved as trumpet yelps and double-tonguing rubato slurs from Green are matched with a low-pitched bull fiddle tone.
More use of the polyphonic skills available from all five players is made on the two variants of the Dennis González-composed title track. Green, who has recorded with pianist Mulgrew Miller in the past, makes his most affecting statement on “Cape of Storms I”. Following swaying octave runs from the bass and resonating lopes from the vibes, the saxophonist’s high-energy, Tranesque snorts deconstruct the exposition. The resulting miasma lasts until a flutter-tongued interjection from the trumpeter, subsequently echoed by the saxophonist, mutes the cacophony and finally buries it under a pseudo-martial beat from Moholo-Moholo.
Tackled a second time, this musical homage to the drummer’s Cape Town birthplace explodes with guiro-like rasps, the shaking of sleigh bells, the striking of a gong, concentrated drum ruffs and flams plus distanced cymbal reverberations, most courtesy of Stefan González. The tune only reveals it linear quality mid-way through when abrasive, adagio vibraphone rolls intersect with slurred plunger work from the trumpeter presaging a conclusive diminishing bass string thump.
Working together with multi harmonies and rhythms, the quintet confirms its flexibility with the concluding “Snakehandler”. Another Latinized composition by Dennis González, its arrangement demonstrates the similarities between beats from the southern United States and South Africa, especially when conga-like drum pops and pats complement patterns from Moholo-Moholo’s full kit. All of this serves as background to plunger work from the composer that could easily fit in among vamps from the brass section of a Salsa band. Contrast is provided by Aaron González’s straight-ahead string strums, carefully wedded to the contemporary Jazz tradition.
Someone who has accomplished the difficult task of becoming both musically unique and accommodating, on this disc – and most of his other CDs – Dennis González proves that his playing and composing can work in almost any context. And that takes place whether the other players come from thousands of miles away or from his own home.
 
Info
El trompetista Dennis González posee un espíritu aventurado y es dueño de un sonido que combina visceralidad y sofisticación. En sus proyectos manifiesta una virtud como líder que consiste en permitir amplio espacio a sus acompañantes, de modo de transformar cada sesión en una experiencia colectiva. Yells At Eels es la banda que lo une a sus hijos Aaron y Stefan y a ocasionales talentosos invitados. Cape of Storms, donde participan el saxofonista Tim Green y el baterista Louis Moholo-Moholo, contiene magníficas composiciones con mucho groove donde destacan la ejecución sutil, a la vez que estimulante de Dennis, una muscular tarea de Aaron en el contrabajo y las no menos vigorosas pinceladas de Stefan en vibráfono, balafon (una marimba africana) y un arsenal percusivo. Se distinguen temas como: Document for Walt Dickerson, la apertura con un motivo reiterativo tocado por Dennis, una labor de Aaron que destila ímpetu y un empático acompañamiento de Stefan en placas y Louis Moholo-Moloho en batería; Cape of Storms I y Tranquilidad Alborotadora II, en las que Tim Green aporta una inteligente tarea en el saxo tenor, dominada por un tono oscuro; y Snakehandler, el cierre con mucho swing e interacción grupal; a los que se añaden distinguidos interludios a cargo de cada uno de los integrantes del trio. ****1/2
Any questions - support@pro-jazz.com
To become a power user - read FAQ.
11:32
287
Нет комментариев. Ваш будет первым!