Вы используете незарегистрированную версию компонента "Вкладки"!

Поиск

(Avant-Garde Jazz, Free Improvisation) Ballister (Dave Rempis, Fred Lonberg-Holm, Paal Nilssen-Love) - Mi Casa Es En Fuego - 2013, FLAC (tracks+.cue), lossless

(Avant-Garde Jazz, Free Improvisation) Ballister (Dave Rempis, Fred Lonberg-Holm, Paal Nilssen-Love) - Mi Casa Es En Fuego - 2013, FLAC (tracks+.cue), lossless
Треклист:
BALLISTER // MI CASA ES EN FUEGO
Жанр: Avant-Garde Jazz, Free Improvisation
Страна-производитель диска: USA
Год издания: 2013
Издатель (лейбл): Self released
Аудиокодек: FLAC (*.flac)
Тип рипа: tracks+.cue
Битрейт аудио: lossless
Продолжительность: 49:36
Источник (релизер): спасибо 6060842
Наличие сканов в содержимом раздачи: нет
Треклист:
1 Cockloft
2 Smolder
3 Phantom Box System
 
Лог создания рипа
X Lossless Decoder version 20130407 (143.0)
XLD extraction logfile from 2013-04-23 23:57:25 +0400
Ballister / Mi Casa Es En Fuego
Used drive : HL-DT-ST DVDRW GX30N (revision RP09)
Media type : Pressed CD
Ripper mode : XLD Secure Ripper
Disable audio cache : OK for the drive with a cache less than 1375KiB
Make use of C2 pointers : NO
Read offset correction : 6
Max retry count : 20
Gap status : Analyzed, Appended
TOC of the extracted CD
Track | Start | Length | Start sector | End sector
---------------------------------------------------------
1 | 00:00:00 | 19:46:10 | 0 | 88959
2 | 19:46:10 | 13:15:57 | 88960 | 148641
3 | 33:01:67 | 16:34:43 | 148642 | 223234
AccurateRip Summary
Disc not found in AccurateRip DB.
All Tracks
Album gain : -0.46 dB
Peak : 0.808685
Statistics
Read error : 0
Jitter error (maybe fixed) : 0
Retry sector count : 0
Damaged sector count : 0
Track 01
Filename : /Users/anch/Music/FLAC/Ballister - 2013 - Mi Casa Es En Fuego [FLAC]/01 - Cockloft.flac
/Users/anch/Music/FLAC/Ballister - 2013 - Mi Casa Es En Fuego [MP3 320]/01 - Cockloft.mp3
/Users/anch/Music/FLAC/Ballister - 2013 - Mi Casa Es En Fuego [MP3 V0]/01 - Cockloft.mp3
Pre-gap length : 00:02:00
Track gain : -1.58 dB
Peak : 0.808685
CRC32 hash (test run) : C2B4EE79
CRC32 hash : C2B4EE79
CRC32 hash (skip zero) : BBD994DD
AccurateRip v1 signature : 7C4F1AB0
AccurateRip v2 signature : D7021150
->Track not present in AccurateRip database.
Statistics
Read error : 0
Jitter error (maybe fixed) : 0
Retry sector count : 0
Damaged sector count : 0
Track 02
Filename : /Users/anch/Music/FLAC/Ballister - 2013 - Mi Casa Es En Fuego [FLAC]/02 - Smolder.flac
/Users/anch/Music/FLAC/Ballister - 2013 - Mi Casa Es En Fuego [MP3 320]/02 - Smolder.mp3
/Users/anch/Music/FLAC/Ballister - 2013 - Mi Casa Es En Fuego [MP3 V0]/02 - Smolder.mp3
Track gain : 1.08 dB
Peak : 0.805969
CRC32 hash (test run) : 77D01511
CRC32 hash : 77D01511
CRC32 hash (skip zero) : CD3D944B
AccurateRip v1 signature : 7C10A13D
AccurateRip v2 signature : E3216CDF
->Track not present in AccurateRip database.
Statistics
Read error : 0
Jitter error (maybe fixed) : 0
Retry sector count : 0
Damaged sector count : 0
Track 03
Filename : /Users/anch/Music/FLAC/Ballister - 2013 - Mi Casa Es En Fuego [FLAC]/03 - Phantom Box System.flac
/Users/anch/Music/FLAC/Ballister - 2013 - Mi Casa Es En Fuego [MP3 320]/03 - Phantom Box System.mp3
/Users/anch/Music/FLAC/Ballister - 2013 - Mi Casa Es En Fuego [MP3 V0]/03 - Phantom Box System.mp3
Track gain : 3.00 dB
Peak : 0.805145
CRC32 hash (test run) : 8300784B
CRC32 hash : 8300784B
CRC32 hash (skip zero) : 42F63BCF
AccurateRip v1 signature : FCDBFFF1
AccurateRip v2 signature : 3369BF55
->Track not present in AccurateRip database.
Statistics
Read error : 0
Jitter error (maybe fixed) : 0
Retry sector count : 0
Damaged sector count : 0
No errors occurred
End of status report
 
Содержание индексной карты (.CUE)
TITLE "Mi Casa Es En Fuego"
PERFORMER "Ballister"
REM GENRE "Free Jazz"
REM DATE "2013"
REM DISCID 290BA003
REM REPLAYGAIN_ALBUM_GAIN -0.46 dB
REM REPLAYGAIN_ALBUM_PEAK 0.808685
FILE "01 - Cockloft.flac" WAVE
TRACK 01 AUDIO
TITLE "Cockloft"
PERFORMER "Ballister"
FLAGS DCP
REM REPLAYGAIN_TRACK_GAIN -1.58 dB
REM REPLAYGAIN_TRACK_PEAK 0.808685
INDEX 01 00:00:00
FILE "02 - Smolder.flac" WAVE
TRACK 02 AUDIO
TITLE "Smolder"
PERFORMER "Ballister"
FLAGS DCP
REM REPLAYGAIN_TRACK_GAIN 1.08 dB
REM REPLAYGAIN_TRACK_PEAK 0.805969
INDEX 01 00:00:00
FILE "03 - Phantom Box System.flac" WAVE
TRACK 03 AUDIO
TITLE "Phantom Box System"
PERFORMER "Ballister"
FLAGS DCP
REM REPLAYGAIN_TRACK_GAIN 3.00 dB
REM REPLAYGAIN_TRACK_PEAK 0.805145
INDEX 01 00:00:00
 
Об альбоме
Mi Casa Es En Fuego, which means, “my house is on fire” in Spanish, is an appropriate name to call a set of music that’s often aflame, and even in the quieter moments, the embers are still glowing, ready to re-ignite the house again.
That’s just how Ballister rolls, a visceral trio that only makes records extemporaneously and live in front of an audience, and Fuego is no exception. Dave Rempis (alto/tenor/baritone saxophones), Fred Longberg-Holm (cello/guitar/electronics) and Paal Nilssen-Love (drums/percussion) have all performed for both Ken Vandermark and Peter Brötzmann at one time or another, and these major figures of free jazz couldn’t help but to rub off on them. Not to mention Archie Shepp, Julius Hemphill and the whole AACM crowd.
These three group improvisations, each running from thirteen to twenty minutes long, roam from spans of ferocity to passages of rumination and peace, often moving along a bell curve of intensity. The appeal freewheeling improvised music like this comes from its very expressive nature, where the real musical souls of each performer are laid to bare.
Rempis plays alto all the way down to baritone sax, and he can exploit the unique properties of all of them. On “Cockloft,” he plays an abrasive, squeaky tenor sax, staying on the leading edge of the song and wringing out every drop of sweat out of that horn. For “Smolder” he uses the baritone to stab randomly at the spaces, emit jarring drones and unleash anguish and urgency. On “Phantom Box System,” his alto is played most conventionally of all, evoking tradition, but still jumping off into the abyss when the situation calls for it.
Fred Longberg-Holm is among the world’s most experimental and forward-thinking cellists, and if you didn’t know that before, you’d know it after listening to this record. On “Cockloft,” he’s able to effectively assume the role of a metal guitarist and at one point wrings out demonic electrified sounds from it, à la Tom Cora. For “Smolder,” he plays electric guitar instead, which doesn’t sound metal, but during the softer moments, he can be heard playing Joe Morris lines. Back on cello for “Phantom Box System,” he unloads a frantic bowed solo, then follows up a little while later with another solo played pizzicato which equal nerve.
Nilssen-Love glues everything together, and his elite level drum work is easy to notice all over this date. Nilssen-Love is so good at maintaining complex but forceful rhythms while sparring and integrating with the other players; he does that particularly well with Rempis on “Cockloft” and with Longberg-Holm during “Phantom Box System.” He will also conjure an absorbing and unique groove that’s invented on the spot, usually at a point when it appears that the song is about to run out of gas. It conspicuously invigorates the other two, and Rempis and Fred Longberg-Holm exploiting these crazy grooves, such as the ones chugging toward the end of the first and third tunes, make up some of the highest points of the record.
Both combustible and contemplative, Mi Casa Es En Fuego is another memorable Ballister performance. Rempis, Longberg-Holm and Nilssen-Love know how to pull together so many components in making noisy jazz that’s tenacious, intuitive but not lacking in shape. This is improvised music that Vandermark and Brötzmann would surely approve of, and so should you. (S. Victor Aaron)
 
Состав

Dave Rempis - alto / tenor / baritone saxophone
Fred Longberg-Holm - cello, guitar, electronic
Paal Nilssen-Love - drums, percussion
Ballister - Mechanisms (2012) [Clean Feed]
Any questions -> support@pro-jazz.com. По всем вопросам пишите -> support@pro-jazz.com
11:30
146
Нет комментариев. Ваш будет первым!