Вы используете незарегистрированную версию компонента "Вкладки"!

Поиск

(Modern Creative, Avant-Garde) Gerry Hemingway Quintet - Riptide - 2011, FLAC (tracks+.cue), lossless

(Modern Creative, Avant-Garde) Gerry Hemingway Quintet - Riptide - 2011, FLAC (tracks+.cue), lossless
Треклист:
Gerry Hemingway Quintet / Riptide
Жанр: Modern Creative, Avant-Garde
Страна-производитель диска: Portugal
Год издания: 2011
Издатель (лейбл): Clean Feed
Номер по каталогу: CF227CD
Аудиокодек: FLAC (*.flac)
Тип рипа: tracks+.cue
Битрейт аудио: lossless
Продолжительность: 1:08:01
Источник (релизер): Max Monteiro
Наличие сканов в содержимом раздачи: нет
Треклист:
1. Sumna 8:47
2. Riptide 6:57
3. Gitar 12:51
4. At Anytime 9:30
5. Asamine 4:54
6. Holler Up 7:30
7. Meddle Music 4:38
8. Backabacka 8:20
9. Chicken Blood 4:33
All compositions by Gerry Hemingway.
 
Лог создания рипа
Exact Audio Copy V1.0 beta 3 from 29. August 2011
EAC extraction logfile from 26. April 2013, 14:02
Gerry Hemingway Quintet / Riptide
Used drive : SlimtypeeNAU508 5 Adapter: 1 ID: 0
Read mode : Secure
Utilize accurate stream : Yes
Defeat audio cache : Yes
Make use of C2 pointers : No
Read offset correction : 6
Overread into Lead-In and Lead-Out : No
Fill up missing offset samples with silence : Yes
Delete leading and trailing silent blocks : No
Null samples used in CRC calculations : Yes
Used interface : Native Win32 interface for Win NT & 2000
Gap handling : Appended to previous track
Used output format : User Defined Encoder
Selected bitrate : 768 kBit/s
Quality : High
Add ID3 tag : No
Command line compressor : C:\Program Files (x86)\Exact Audio Copy\Flac\flac.exe
Additional command line options : -8 -V -T "ARTIST=%artist%" -T "TITLE=%title%" -T "ALBUM=%albumtitle%" -T "DATE=%year%" -T "TRACKNUMBER=%tracknr%" -T "GENRE=%genre%" -T "PERFORMER=%albuminterpret%" -T "COMPOSER=%composer%" %haslyrics%--tag-from-file=LYRICS="%lyricsfile%"%haslyrics% -T "ALBUMARTIST=%albumartist%" -T "DISCNUMBER=%cdnumber%" -T "TOTALDISCS=%totalcds%" -T "TOTALTRACKS=%numtracks%" -T "COMMENT=%comment%" %source% -o %dest%
TOC of the extracted CD
Track | Start | Length | Start sector | End sector
---------------------------------------------------------
1 | 0:00.00 | 8:47.20 | 0 | 39544
2 | 8:47.20 | 6:57.16 | 39545 | 70835
3 | 15:44.36 | 12:50.66 | 70836 | 128651
4 | 28:35.27 | 9:30.09 | 128652 | 171410
5 | 38:05.36 | 4:53.67 | 171411 | 193452
6 | 42:59.28 | 7:29.69 | 193453 | 227196
7 | 50:29.22 | 4:38.19 | 227197 | 248065
8 | 55:07.41 | 8:20.37 | 248066 | 285602
9 | 63:28.03 | 4:32.42 | 285603 | 306044
Track 1
Filename C:\EAC rips\01 - Sumna.wav
Pre-gap length 0:00:02.00
Peak level 87.5 %
Extraction speed 2.7 X
Track quality 100.0 %
Test CRC 65056C7C
Copy CRC 65056C7C
Track not present in AccurateRip database
Copy OK
Track 2
Filename C:\EAC rips\02 - Riptide.wav
Peak level 94.7 %
Extraction speed 3.0 X
Track quality 100.0 %
Test CRC EEF06F01
Copy CRC EEF06F01
Track not present in AccurateRip database
Copy OK
Track 3
Filename C:\EAC rips\03 - Gitar.wav
Peak level 94.9 %
Extraction speed 3.3 X
Track quality 99.9 %
Test CRC C5780644
Copy CRC C5780644
Track not present in AccurateRip database
Copy OK
Track 4
Filename C:\EAC rips\04 - At Anytime.wav
Peak level 95.2 %
Extraction speed 4.0 X
Track quality 100.0 %
Test CRC A7D2A873
Copy CRC A7D2A873
Track not present in AccurateRip database
Copy OK
Track 5
Filename C:\EAC rips\05 - Asamine.wav
Peak level 53.2 %
Extraction speed 4.0 X
Track quality 100.0 %
Test CRC 2657B6F0
Copy CRC 2657B6F0
Track not present in AccurateRip database
Copy OK
Track 6
Filename C:\EAC rips\06 - Holler Up.wav
Peak level 94.5 %
Extraction speed 4.4 X
Track quality 100.0 %
Test CRC C87701FD
Copy CRC C87701FD
Track not present in AccurateRip database
Copy OK
Track 7
Filename C:\EAC rips\07 - Meddle Music.wav
Peak level 95.3 %
Extraction speed 4.4 X
Track quality 100.0 %
Test CRC 6434805E
Copy CRC 6434805E
Track not present in AccurateRip database
Copy OK
Track 8
Filename C:\EAC rips\08 - Backabacka.wav
Peak level 94.7 %
Extraction speed 4.8 X
Track quality 100.0 %
Test CRC 626E2A10
Copy CRC 626E2A10
Track not present in AccurateRip database
Copy OK
Track 9
Filename C:\EAC rips\09 - Chicken Blood.wav
Peak level 93.9 %
Extraction speed 3.8 X
Track quality 99.9 %
Test CRC B5EA5537
Copy CRC B5EA5537
Track not present in AccurateRip database
Copy OK
None of the tracks are present in the AccurateRip database
No errors occurred
End of status report
---- CUETools DB Plugin V2.1.4
[CTDB TOCID: nv4tXgTLfsNuysLlMwGZgx5VTQ4-] found
Submit result: nv4tXgTLfsNuysLlMwGZgx5VTQ4- has been confirmed
Track | CTDB Status
1 | (1/1) Accurately ripped
2 | (1/1) Accurately ripped
3 | (1/1) Accurately ripped
4 | (1/1) Accurately ripped
5 | (1/1) Accurately ripped
6 | (1/1) Accurately ripped
7 | (1/1) Accurately ripped
8 | (1/1) Accurately ripped
9 | (1/1) Accurately ripped
==== Log checksum 79E2303A63EF5CFDFA44CBDF754DB1496C65E23D1F18A478F0D0FD23D02D5468 ====
 
Содержание индексной карты (.CUE)
REM GENRE Jazz
REM DATE 2009
REM DISCID 7A0FF009
REM COMMENT "ExactAudioCopy v1.0b3"
PERFORMER "Gerry Hemingway Quintet"
TITLE "Riptide"
FILE "01 - Sumna.wav" WAVE
TRACK 01 AUDIO
TITLE "Sumna"
PERFORMER "Gerry Hemingway Quintet"
ISRC USGPH1032801
FLAGS DCP
INDEX 01 00:00:00
FILE "02 - Riptide.wav" WAVE
TRACK 02 AUDIO
TITLE "Riptide"
PERFORMER "Gerry Hemingway Quintet"
ISRC USGPH1032802
FLAGS DCP
INDEX 01 00:00:00
FILE "03 - Gitar.wav" WAVE
TRACK 03 AUDIO
TITLE "Gitar"
PERFORMER "Gerry Hemingway Quintet"
ISRC USGPH1032803
FLAGS DCP
INDEX 01 00:00:00
FILE "04 - At Anytime.wav" WAVE
TRACK 04 AUDIO
TITLE "At Anytime"
PERFORMER "Gerry Hemingway Quintet"
ISRC USGPH1032804
FLAGS DCP
INDEX 01 00:00:00
FILE "05 - Asamine.wav" WAVE
TRACK 05 AUDIO
TITLE "Asamine"
PERFORMER "Gerry Hemingway Quintet"
ISRC USGPH1032805
FLAGS DCP
INDEX 01 00:00:00
FILE "06 - Holler Up.wav" WAVE
TRACK 06 AUDIO
TITLE "Holler Up"
PERFORMER "Gerry Hemingway Quintet"
ISRC USGPH1032806
FLAGS DCP
INDEX 01 00:00:00
FILE "07 - Meddle Music.wav" WAVE
TRACK 07 AUDIO
TITLE "Meddle Music"
PERFORMER "Gerry Hemingway Quintet"
ISRC USGPH1032807
FLAGS DCP
INDEX 01 00:00:00
FILE "08 - Backabacka.wav" WAVE
TRACK 08 AUDIO
TITLE "Backabacka"
PERFORMER "Gerry Hemingway Quintet"
ISRC USGPH1032808
FLAGS DCP
INDEX 01 00:00:00
FILE "09 - Chicken Blood.wav" WAVE
TRACK 09 AUDIO
TITLE "Chicken Blood"
PERFORMER "Gerry Hemingway Quintet"
ISRC USGPH1032809
FLAGS DCP
INDEX 01 00:00:00
Доп. информация: Recorded December 5, 2009 at Acoustic Music, Brooklyn, NY.
If you prefer the WEB version, you can find it here.
 
Состав
Oscar Noriega – Alto Sax, Clarinet, Bass Clarinet
Ellery Eskelin – Tenor Sax
Terrence McManus – Guitars
Kermit Driscoll – Acoustic Bass & Electric Bass Guitar
Gerry Hemingway – Drums, Harmonica
Any questions -> support@pro-jazz.com. По всем вопросам пишите -> support@pro-jazz.com
11:33
153
Нет комментариев. Ваш будет первым!