Вы используете незарегистрированную версию компонента "Вкладки"!

Поиск

(Free Jazz, Free Improvisation) Dan Warburton, Jean-Luc Guionnet, Francois Fuchs, Edward Perraud - Return Of The New Thing - 1999, FLAC (image+.cue), lossless

(Free Jazz, Free Improvisation) Dan Warburton, Jean-Luc Guionnet, Francois Fuchs, Edward Perraud - Return Of The New Thing - 1999, FLAC (image+.cue), lossless
Треклист:
Dan Warburton, Jean-Luc Guionnet, Francois Fuchs, Edward Perraud / Return Of The New Thing
Жанр: Free Jazz, Free Improvisation
Страна-производитель диска: UK
Год издания диска: 1999
Издатель (лейбл): Leo Records
Номер по каталогу: CD LR 280
Аудиокодек: FLAC (*.flac)
Тип рипа: image+.cue
Битрейт аудио: lossless
Продолжительность: 49:29
Источник (релизер): Cd
Наличие сканов в содержимом раздачи: нет
Треклист:
1 Somehow, Anyhow 12:54
2 Hic Et Nunc, In Limine 17:20
3 Y2k 12:39
4 Truth And Reconciliation [To Archie Shepp] 7:12
 
Лог создания рипа
Exact Audio Copy V1.0 beta 2 from 29. April 2011
EAC extraction logfile from 18. July 2011, 12:46
Warburton - Guionnet - Fuchs - Perraud / Return of the new thing
Used drive : Optiarc DVD RW AD-7170A Adapter: 0 ID: 0
Read mode : Secure
Utilize accurate stream : Yes
Defeat audio cache : Yes
Make use of C2 pointers : No
Read offset correction : 48
Overread into Lead-In and Lead-Out : No
Fill up missing offset samples with silence : Yes
Delete leading and trailing silent blocks : No
Null samples used in CRC calculations : Yes
Used interface : Native Win32 interface for Win NT & 2000
Used output format : User Defined Encoder
Selected bitrate : 320 kBit/s
Quality : High
Add ID3 tag : No
Command line compressor : C:\Program Files\Exact Audio Copy\Flac\flac.exe
Additional command line options : -V -8 -T "Date=%year%" -T "Genre=%genre%" %source%
TOC of the extracted CD
Track | Start | Length | Start sector | End sector
---------------------------------------------------------
1 | 0:00.00 | 12:54.71 | 0 | 58120
2 | 12:54.71 | 17:20.58 | 58121 | 136178
3 | 30:15.54 | 12:39.67 | 136179 | 193170
4 | 42:55.46 | 7:12.45 | 193171 | 225615
Range status and errors
Selected range
Filename C:\EAC\Warburton - Guionnet - Fuchs - Perraud - Return of the new thing.wav
Peak level 89.9 %
Extraction speed 5.0 X
Range quality 99.9 %
Test CRC FA0F9BAC
Copy CRC FA0F9BAC
Copy OK
No errors occurred
AccurateRip summary
Track 1 not present in database
Track 2 not present in database
Track 3 not present in database
Track 4 not present in database
None of the tracks are present in the AccurateRip database
End of status report
==== Log checksum F0E9735F68932D2EE777BFD295A9C687B32A14AF933F1D04A37627BE5B27E089 ====
 
Содержание индексной карты (.CUE)
REM GENRE Free-Jazz
REM DATE 1999
REM DISCID 3C0BC004
REM COMMENT "ExactAudioCopy v1.0b2"
CATALOG 0000000000000
PERFORMER "Warburton - Guionnet - Fuchs - Perraud"
TITLE "Return of the new thing"
FILE "Warburton - Guionnet - Fuchs - Perraud - Return of the new thing.flac" WAVE
TRACK 01 AUDIO
TITLE "Somehow, anyhow"
PERFORMER "Warburton - Guionnet - Fuchs - Perraud"
ISRC 000000000000
INDEX 01 00:00:00
TRACK 02 AUDIO
TITLE "Hic et nunc, in limine"
PERFORMER "Warburton - Guionnet - Fuchs - Perraud"
ISRC 000000000000
INDEX 00 12:49:55
INDEX 01 12:54:71
TRACK 03 AUDIO
TITLE "Y2K"
PERFORMER "Warburton - Guionnet - Fuchs - Perraud"
ISRC 000000000000
INDEX 00 30:10:68
INDEX 01 30:15:54
TRACK 04 AUDIO
TITLE "Truth and Reconciliation (to Archie Shepp)"
PERFORMER "Warburton - Guionnet - Fuchs - Perraud"
ISRC 000000000000
INDEX 00 42:53:43
INDEX 01 42:55:46
Доп. информация: Recorded on 20 March 1999 at Ouistiti, Paris
 
Состав
Alto Saxophone – Jean-Luc Guionnet
Bass – Francois Fuchs
Percussion – Edward Perraud
Piano, Violin – Dan Warburton
Any questions -> support@pro-jazz.com. По всем вопросам пишите -> support@pro-jazz.com
14:54
152
Нет комментариев. Ваш будет первым!