Вы используете незарегистрированную версию компонента "Вкладки"!

Поиск

(Free Jazz) Ken Vandermark - Barry Guy - Mark Sanders / Fox Fire (2CD) - 2009, FLAC (image+.cue), lossless

(Free Jazz) Ken Vandermark - Barry Guy - Mark Sanders / Fox Fire (2CD) - 2009, FLAC (image+.cue), lossless
Треклист:
Ken Vandermark - Barry Guy - Mark Sanders / Fox Fire (2CD)
Жанр: Free Jazz
Страна-производитель диска: Switzerland
Год издания диска: 2009
Издатель (лейбл): Maya
Номер по каталогу: MCD0901
Страна: USA
Аудиокодек: FLAC (*.flac)
Тип рипа: image+.cue
Битрейт аудио: lossless
Продолжительность: 62:00 + 58:00
Источник (релизер): CD
Наличие сканов в содержимом раздачи: да
Треклист:
CD1:
01 - Katsina (11:58)
02 - Up North (11:59)
03 - Kwingyaw (For T. D-E) (22:38)
04 - Revontulet (9:10)
05 - Northern Lights (6:23)
CD2:
01 - Fuggle (21:27)
02 - Aquila (7:18)
03 - Challenger (16:19)
04 - Omega (9:02)
05 - Nugget (3:57)
 
Лог создания рипа - CD1
Exact Audio Copy V1.0 beta 2 from 29. April 2011
EAC extraction logfile from 18. July 2011, 10:20
Ken Vandermark, Barry Guy, Mark Sanders / Fox Fire (cd 1)
Used drive : Optiarc DVD RW AD-7240S Adapter: 2 ID: 0
Read mode : Secure
Utilize accurate stream : Yes
Defeat audio cache : Yes
Make use of C2 pointers : No
Read offset correction : 48
Overread into Lead-In and Lead-Out : No
Fill up missing offset samples with silence : Yes
Delete leading and trailing silent blocks : No
Null samples used in CRC calculations : Yes
Used interface : Native Win32 interface for Win NT & 2000
Used output format : User Defined Encoder
Selected bitrate : 768 kBit/s
Quality : High
Add ID3 tag : No
Command line compressor : C:\Program Files\Exact Audio Copy\FLAC\FLAC.EXE
Additional command line options : -6 -V -T "ARTIST=%artist%" -T "TITLE=%title%" -T "ALBUM=%albumtitle%" -T "DATE=%year%" -T "TRACKNUMBER=%tracknr%" -T "GENRE=%genre%" -T "COMMENT=%comment%" -T "BAND=%albuminterpret%" -T "COMPOSER=%composer%" %haslyrics%--ta
TOC of the extracted CD
Track | Start | Length | Start sector | End sector
---------------------------------------------------------
1 | 0:00.00 | 11:56.31 | 0 | 53730
2 | 11:56.31 | 11:59.62 | 53731 | 107717
3 | 23:56.18 | 22:38.21 | 107718 | 209588
4 | 46:34.39 | 9:10.08 | 209589 | 250846
5 | 55:44.47 | 6:23.45 | 250847 | 279616
Range status and errors
Selected range
Filename C:\Documents and Settings\User\Мои документы\Ken Vandermark, Barry Guy, Mark Sanders - Fox Fire (2009)\Ken Vandermark, Barry Guy, Mark Sanders - Fox Fire (cd 1).wav
Peak level 99.6 %
Extraction speed 4.0 X
Range quality 100.0 %
Test CRC 5B46E1C4
Copy CRC 5B46E1C4
Copy OK
No errors occurred
AccurateRip summary
Track 1 accurately ripped (confidence 2) [295DF213] (AR v1)
Track 2 accurately ripped (confidence 2) [4F6149E7] (AR v1)
Track 3 accurately ripped (confidence 2) [CAC5343D] (AR v1)
Track 4 accurately ripped (confidence 2) [B146C8F4] (AR v1)
Track 5 accurately ripped (confidence 2) [CF4FC406] (AR v1)
All tracks accurately ripped
End of status report
==== Log checksum 18FF97879CAB21474F259223F60C5CF18BA6ADB9F29BD98313B6CBC4E516B178 ====
 
Лог создания рипа - CD2
Exact Audio Copy V1.0 beta 2 from 29. April 2011
EAC extraction logfile from 18. July 2011, 10:59
Ken Vandermark, Barry Guy, Mark Sanders / Fox Fire (cd 2)
Used drive : Optiarc DVD RW AD-7240S Adapter: 2 ID: 0
Read mode : Secure
Utilize accurate stream : Yes
Defeat audio cache : Yes
Make use of C2 pointers : No
Read offset correction : 48
Overread into Lead-In and Lead-Out : No
Fill up missing offset samples with silence : Yes
Delete leading and trailing silent blocks : No
Null samples used in CRC calculations : Yes
Used interface : Native Win32 interface for Win NT & 2000
Used output format : User Defined Encoder
Selected bitrate : 768 kBit/s
Quality : High
Add ID3 tag : No
Command line compressor : C:\Program Files\Exact Audio Copy\FLAC\FLAC.EXE
Additional command line options : -6 -V -T "ARTIST=%artist%" -T "TITLE=%title%" -T "ALBUM=%albumtitle%" -T "DATE=%year%" -T "TRACKNUMBER=%tracknr%" -T "GENRE=%genre%" -T "COMMENT=%comment%" -T "BAND=%albuminterpret%" -T "COMPOSER=%composer%" %haslyrics%--ta
TOC of the extracted CD
Track | Start | Length | Start sector | End sector
---------------------------------------------------------
1 | 0:00.00 | 21:25.34 | 0 | 96408
2 | 21:25.34 | 7:18.13 | 96409 | 129271
3 | 28:43.47 | 16:19.57 | 129272 | 202753
4 | 45:03.29 | 9:02.63 | 202754 | 243466
5 | 54:06.17 | 3:57.13 | 243467 | 261254
Range status and errors
Selected range
Filename C:\Documents and Settings\User\Мои документы\Ken Vandermark, Barry Guy, Mark Sanders - Fox Fire (2009)\CD2\Ken Vandermark, Barry Guy, Mark Sanders - Fox Fire (cd 2).wav
Peak level 98.7 %
Extraction speed 4.0 X
Range quality 100.0 %
Test CRC 966BE298
Copy CRC 966BE298
Copy OK
No errors occurred
AccurateRip summary
Track 1 accurately ripped (confidence 1) [98CC9DBD] (AR v1)
Track 2 accurately ripped (confidence 1) [1CEB2461] (AR v1)
Track 3 accurately ripped (confidence 1) [00D69689] (AR v1)
Track 4 accurately ripped (confidence 1) [0B7BEAB8] (AR v1)
Track 5 accurately ripped (confidence 1) [35D3111A] (AR v1)
All tracks accurately ripped
End of status report
==== Log checksum 08C555E88470C0EE7BD9937FCB4EA114A9A2BF66F8A43052F0C55BC040FC5C9F ====
 
Содержание индексной карты (.CUE) - CD1
REM GENRE Jazz
REM DATE 2009
REM DISCID 4A0E9005
REM COMMENT "ExactAudioCopy v1.0b2"
PERFORMER "Ken Vandermark, Barry Guy, Mark Sanders"
TITLE "Fox Fire (cd 1)"
FILE "Ken Vandermark, Barry Guy, Mark Sanders - Fox Fire (cd 1).flac" WAVE
TRACK 01 AUDIO
TITLE "Katsina"
PERFORMER "Ken Vandermark, Barry Guy, Mark Sanders"
ISRC GBAJR0900251
INDEX 01 00:00:00
TRACK 02 AUDIO
TITLE "Up North"
PERFORMER "Ken Vandermark, Barry Guy, Mark Sanders"
ISRC GBAJR0900252
INDEX 01 11:56:31
TRACK 03 AUDIO
TITLE "Kwingyaw"
PERFORMER "Ken Vandermark, Barry Guy, Mark Sanders"
ISRC GBAJR0900253
INDEX 01 23:56:18
TRACK 04 AUDIO
TITLE "Revontulet"
PERFORMER "Ken Vandermark, Barry Guy, Mark Sanders"
ISRC GBAJR0900254
INDEX 01 46:34:39
TRACK 05 AUDIO
TITLE "Northern Lights"
PERFORMER "Ken Vandermark, Barry Guy, Mark Sanders"
ISRC GBAJR0900255
INDEX 01 55:44:47
 
Содержание индексной карты (.CUE) - CD2
REM GENRE Jazz
REM DATE 2009
REM DISCID 420D9B05
REM COMMENT "ExactAudioCopy v1.0b2"
CATALOG <::4>77>02409
PERFORMER "Ken Vandermark, Barry Guy, Mark Sanders"
TITLE "Fox Fire (cd 2)"
FILE "Ken Vandermark, Barry Guy, Mark Sanders - Fox Fire (cd 2).flac" WAVE
TRACK 01 AUDIO
TITLE "Fuggle"
PERFORMER "Ken Vandermark, Barry Guy, Mark Sanders"
ISRC GBAJR0900256
INDEX 01 00:00:00
TRACK 02 AUDIO
TITLE "Aquila"
PERFORMER "Ken Vandermark, Barry Guy, Mark Sanders"
ISRC GBAJR0900257
INDEX 01 21:25:34
TRACK 03 AUDIO
TITLE "Challenger"
PERFORMER "Ken Vandermark, Barry Guy, Mark Sanders"
ISRC GBAJR0900258
INDEX 01 28:43:47
TRACK 04 AUDIO
TITLE "Omega"
PERFORMER "Ken Vandermark, Barry Guy, Mark Sanders"
ISRC GBAJR0900259
INDEX 01 45:03:29
TRACK 05 AUDIO
TITLE "Nugget"
PERFORMER "Ken Vandermark, Barry Guy, Mark Sanders"
ISRC GBAJR0900260
INDEX 01 54:06:17
 
Доп. информация
Recorded live by Chris Trent, Calindronius Recordings, UK: Birmingham, CBSO Centre, November 11, 2008 (CD 1), Leeds, Seven Arts, November 12, 2008 (CD 2)
 
Об исполнителе (группе)
This trio – Chicago saxophonist/­clarinettist Ken Vandermark with the British bass-and-drums partnership of Barry Guy and Mark Sanders – was ­assembled for a 2008 tour; the music here was caught on the road in Birmingham and Leeds. Unlike most of the jazz free-improvisers he often resembles (saxophonist Evan Parker in particular), Vandermark has a varied musical CV, having also worked in rock and R&B. Many of his records have made explicit jazz references (to anyone from Stan Getz to Sun Ra), but not this explosive double album, which goes to the outer reaches and stays there. Guy is a one-man ­orchestra of double-bass, percussion and electronic sounds, and Sanders splices the infectious swing of a straight­ahead jazz drummer to an inspirational rhythmic freedom. Some pieces are full of squealing top notes, pad-slaps and gruff Evan Parker-like multiphonics; others are warmer clarinet explorations. Guy's fast arco playing on Northern Lights ­creates an unnerving wind-noise effect behind the blurting tenor sax. It's an ­uncompromisingly in-the-moment ­album, but it bursts with life.
 
Об альбоме (сборнике)
Ken Vandermark is one of the great nomads of the jazz world, roaming the Earth in search of music to play and fellow travelers to collaborate with. This album is a double disc set recorded live in Birmingham and Leeds, UK with Vandermark on tenor saxophone and clarinet, Barry Guy on bass and Mark Sanders on drums. This album consists of two nice long sets of high energy free improvisation and the music is very exciting. The band is locked in tightly and listening to each each other with a great degree of empathy and understanding. Vandermark sounds very inspired by his British companions and blows with great gusto and masculine authority on the fast paced free pieces, while maintaining a bruised and vulnerable humility on the more abstract pieces. At times he really seems to be channeling the painter and physical artists that have influenced him into a painterly technique of broad strokes of music within a particular performance. Bassist Barry Guy is most well know for large ensemble works and compositions, but he thrives here as well, bowing and plucking his bass with great strength and dexterity. Sanders is a drummer that I wasn't familiar with prior to hearing this recording, but I was quite impressed with him as well. There is a fluidity to his playing that meshes perfectly with the other two musicians. Adding it all up, the results are very impressive. It is hard to pull out individual performances out for examination, because the music on both discs flows together as a whole with ebbs and flows like the tide. Fans of open ended free improvisation will find a lot to enjoy on this recording. The music is quite challenging (in the best way possible) and is bracing in its beauty and power.
 
Состав
Ken Vandermark - tenor saxophone, clarinet
Barry Guy - bass
Mark Sanders - percussion
Any questions -> support@pro-jazz.com. По всем вопросам пишите -> support@pro-jazz.com
14:55
184
Нет комментариев. Ваш будет первым!