Вы используете незарегистрированную версию компонента "Вкладки"!

Поиск

(Modern Jazz, Free Jazz) Malachi Thompson - Timeline - 2000, FLAC (image+.cue), lossless

(Modern Jazz, Free Jazz) Malachi Thompson - Timeline - 2000, FLAC (image+.cue), lossless
Треклист:
Malachi Thompson / Timeline
Жанр: Modern Jazz, Free Jazz
Страна-производитель диска: USA
Год издания диска: 2000
Издатель (лейбл): Delmark
Номер по каталогу: DE-421
Страна: USA
Аудиокодек: FLAC (*.flac)
Тип рипа: image+.cue
Битрейт аудио: lossless
Продолжительность: 1:10:58
Источник (релизер): CD
Наличие сканов в содержимом раздачи: да
Треклист:
01. Quest
02. Street Dance
03. Two Nights In Malakal
04. Ali Shuffle
05. Yesterdays
06. Some Freebop For Monk
07. They Stole Einstein's Brain
08. Picture Of
09. Worm Hole
10. Ghost Guest
11. Take A Look
12. Flesh Against Steel
 
Лог создания рипа
Exact Audio Copy V1.0 beta 2 from 29. April 2011
EAC extraction logfile from 14. July 2011, 16:09
Malachi Thompson / Timeline
Used drive : Optiarc DVD RW AD-7240S Adapter: 2 ID: 0
Read mode : Secure
Utilize accurate stream : Yes
Defeat audio cache : Yes
Make use of C2 pointers : No
Read offset correction : 48
Overread into Lead-In and Lead-Out : No
Fill up missing offset samples with silence : Yes
Delete leading and trailing silent blocks : No
Null samples used in CRC calculations : Yes
Used interface : Native Win32 interface for Win NT & 2000
Used output format : User Defined Encoder
Selected bitrate : 768 kBit/s
Quality : High
Add ID3 tag : No
Command line compressor : C:\Program Files\Exact Audio Copy\FLAC\FLAC.EXE
Additional command line options : -6 -V -T "ARTIST=%artist%" -T "TITLE=%title%" -T "ALBUM=%albumtitle%" -T "DATE=%year%" -T "TRACKNUMBER=%tracknr%" -T "GENRE=%genre%" -T "COMMENT=%comment%" -T "BAND=%albuminterpret%" -T "COMPOSER=%composer%" %haslyrics%--ta
TOC of the extracted CD
Track | Start | Length | Start sector | End sector
---------------------------------------------------------
1 | 0:00.00 | 5:45.20 | 0 | 25894
2 | 5:45.20 | 5:17.40 | 25895 | 49709
3 | 11:02.60 | 8:43.27 | 49710 | 88961
4 | 19:46.12 | 6:57.43 | 88962 | 120279
5 | 26:43.55 | 4:49.35 | 120280 | 141989
6 | 31:33.15 | 4:42.67 | 141990 | 163206
7 | 36:16.07 | 6:16.23 | 163207 | 191429
8 | 42:32.30 | 6:46.67 | 191430 | 221946
9 | 49:19.22 | 6:06.68 | 221947 | 249464
10 | 55:26.15 | 5:23.02 | 249465 | 273691
11 | 60:49.17 | 5:57.35 | 273692 | 300501
12 | 66:46.52 | 4:12.15 | 300502 | 319416
Range status and errors
Selected range
Filename C:\Documents and Settings\User\Мои документы\Malachi Thompson - Timeline (2000)\Malachi Thompson - Timeline.wav
Peak level 98.6 %
Extraction speed 4.4 X
Range quality 99.9 %
Test CRC 1E6D913C
Copy CRC 1E6D913C
Copy OK
No errors occurred
AccurateRip summary
Track 1 not present in database
Track 2 not present in database
Track 3 not present in database
Track 4 not present in database
Track 5 not present in database
Track 6 not present in database
Track 7 not present in database
Track 8 not present in database
Track 9 not present in database
Track 10 not present in database
Track 11 not present in database
Track 12 not present in database
None of the tracks are present in the AccurateRip database
End of status report
==== Log checksum 810EABCB19496DCEC290CFE44F175A0360C2B6041A7BEEDAC56202DD2279114D ====
 
Содержание индексной карты (.CUE)
REM GENRE Jazz
REM DATE 2000
REM DISCID B410A20C
REM COMMENT "ExactAudioCopy v1.0b2"
PERFORMER "Malachi Thompson"
TITLE "Timeline"
FILE "Malachi Thompson - Timeline.flac" WAVE
TRACK 01 AUDIO
TITLE "01 The Quest"
PERFORMER "Malachi Thompson"
INDEX 01 00:00:00
TRACK 02 AUDIO
TITLE "02 Street Dance"
PERFORMER "Malachi Thompson"
INDEX 00 05:41:67
INDEX 01 05:45:20
TRACK 03 AUDIO
TITLE "03 Two Nights in Malakal"
PERFORMER "Malachi Thompson"
INDEX 00 10:59:47
INDEX 01 11:02:60
TRACK 04 AUDIO
TITLE "04 The Ali Shuffle"
PERFORMER "Malachi Thompson"
INDEX 00 19:43:10
INDEX 01 19:46:12
TRACK 05 AUDIO
TITLE "05 Yesterdays"
PERFORMER "Malachi Thompson"
INDEX 00 26:40:47
INDEX 01 26:43:55
TRACK 06 AUDIO
TITLE "06 Some Freebop for Monk"
PERFORMER "Malachi Thompson"
INDEX 00 31:29:72
INDEX 01 31:33:15
TRACK 07 AUDIO
TITLE "07 They Stole einsteins Brain"
PERFORMER "Malachi Thompson"
INDEX 00 36:12:60
INDEX 01 36:16:07
TRACK 08 AUDIO
TITLE "08 A Picture Of"
PERFORMER "Malachi Thompson"
INDEX 00 42:29:25
INDEX 01 42:32:30
TRACK 09 AUDIO
TITLE "09 Worm Hole"
PERFORMER "Malachi Thompson"
INDEX 00 49:15:47
INDEX 01 49:19:22
TRACK 10 AUDIO
TITLE "10 Ghost Guest"
PERFORMER "Malachi Thompson"
INDEX 00 55:22:60
INDEX 01 55:26:15
TRACK 11 AUDIO
TITLE "11 Take a Look"
PERFORMER "Malachi Thompson"
INDEX 00 60:46:37
INDEX 01 60:49:17
TRACK 12 AUDIO
TITLE "12 Flesh AGainst Steel"
PERFORMER "Malachi Thompson"
INDEX 00 66:43:55
INDEX 01 66:46:52
 
Об исполнителе (группе)
An excellent if underrated trumpeter, Malachi Thompson has played in free settings and recorded abstract tributes to jazz's possible founder, Buddy Bolden. Thompson grew up in Chicago. After hearing Count Basie's Orchestra at a concert when he was 11, he persuaded his parents to get him a trumpet. By 1969, Thompson was a member of the AACM and working in diverse settings ranging from free jazz to R&B. After gaining a college degree at Governor's State University, he moved to New York in 1974. As a freelancer, Thompson worked with the Sam Wooding big band, Sam Rivers, Joe Henderson, Kalaparusha McIntyre, Jackie McLean, David Murray, and many others. He was a co-leader of Brass Proud (1975-1980), an important part of Lester Bowie's Hot Trumpeter Repertory Company, and later on a member of Brass Fantasy. Thompson spent periods of time living in New York, Washington D.C., and Vienna, Austria. Although knocked out of action for a few years by lymphona in the late '80s, he survived the bout. In the 1990s, Thompson headed the Freebop Band and Africa Brass, having relocated back to Chicago. An adventurous player with a strong sense of jazz's history, Malachi Thompson has led recording sessions for RA (1972 and 1981) and regularly for Delmark since the mid-'80s.
 
Об альбоме (сборнике)
This compilation gathers early and unreleased tracks from between 1972 and 1982 by the excellent trumpeter. But rather than being a hodgepodge of toss-offs, it is a strong portrait of a stellar talent. It is particularly interesting to note the development of what Thompson calls free-bop from a more conservative West Coast-influenced style. Particularly fine is the sensitive "Yesterdays" and the exciting "The Quest."
 
Состав
Malachi Thompson - trumpet, flugelhorn and cornet
with:
1: Sonny Seals - tenor sax
Kirk Brown - piano
John Thomas - guitar
Curtis Robinson, Jr. - bass
Bob Crowder - drums
Penny Jeffries - vocal
Recorded May, 1972 at P.S. Studio, Chicago
2: Jesse Taylor - tenor sax
Kirk Brown - electric piano
Curtis Robinson, Jr. - bass
Aaron Dodd - tuba
Billy Salter - drums
Recorded April, 1974 at United Technique Studio, Chicago
3: same as above except Dodd lays out and Harold Barney also plays electric piano. Kirk Brown takes the solo.
4, 5 & 6: Carter Jefferson - tenor sax
Rafik A. Raheem - keyboards
Marvin Horn - guitar
Paul Ramsey - bass
Greg Bandy - drums
Karen McPherson, Miambi Steele, Malachi Thompson and Drake Colley - vocals
Recorded August, 1982 in Brooklyn, New York
7, 8 & 9: Carter Jefferson - tenor sax
James King - bass
Nasar Abadey - drums
Bill Striggles - poetry readings
and Scat City Singers on 9
Recorded September 6, 1986 at Glasswing Studio in Hyattsville, Maryland
10, 11 & 12: James King - bass
Nasar Abadey - drums
Recorded August 4 & 5, 1988 also Glasswing Studio.
Any questions -> support@pro-jazz.com. По всем вопросам пишите -> support@pro-jazz.com
14:53
169
Нет комментариев. Ваш будет первым!