Вы используете незарегистрированную версию компонента "Вкладки"!

Поиск

(Free Jazz, Free Improvisation) [CDR] Other Three (Brad Dutz, John Fumo, Kim Richmond) - Chasing Ingrid - 2013, FLAC (tracks+.cue), lossless

(Free Jazz, Free Improvisation) [CDR] Other Three (Brad Dutz, John Fumo, Kim Richmond) - Chasing Ingrid - 2013, FLAC (tracks+.cue), lossless
Треклист:
Other Three / Chasing Ingrid
Жанр: Free Jazz, Free Improvisation
Носитель: CDR
Страна-производитель диска: US
Год издания: 2013
Издатель (лейбл): Brad Dutz self-released CD-R
Номер по каталогу: -
Страна: US
Аудиокодек: FLAC (*.flac)
Тип рипа: tracks+.cue
Битрейт аудио: lossless
Продолжительность: 64:41
Источник (релизер): свой фирменный диск
Наличие сканов в содержимом раздачи:
Треклист:
1. Chasing Ingrid 4:28
2. Luminous Falling Caterpillars 3:58
3. Fruition 3:35
4. Look Me Up For A Looney 3:01
5. Don't Pick Up The Cone Snail 4:16
6. Gastronomic Infidelity 6:21
7. It Goes And It Blooms Below 5:00
8. Often Times 4:18
9. Battle Of The Mollusks 4:56
10. Downhill Equilibrium 3:38
11. Interior Squabbles 1:41
12. Ed The Scavenger 3:40
13. Betwixt 4:19
14. Massive Confusion 4:03
15. Quintuplet Clock Ticks 3:21
16. Ballad For The Brick 3:23
 
Лог создания рипа
Exact Audio Copy V1.0 beta 3 from 29. August 2011
EAC extraction logfile from 29. January 2014, 23:19
Other Three / Chasing Ingrid
Used drive : PIONEER DVD-RW DVR-115D Adapter: 0 ID: 0
Read mode : Secure
Utilize accurate stream : Yes
Defeat audio cache : Yes
Make use of C2 pointers : No
Read offset correction : 48
Overread into Lead-In and Lead-Out : No
Fill up missing offset samples with silence : Yes
Delete leading and trailing silent blocks : No
Null samples used in CRC calculations : Yes
Used interface : Installed external ASPI interface
Gap handling : Appended to previous track
Used output format : User Defined Encoder
Selected bitrate : 896 kBit/s
Quality : High
Add ID3 tag : No
Command line compressor : C:\Program Files\Exact Audio Copy\FLAC\FLAC.EXE
Additional command line options : -6 -V -T "ARTIST=%artist%" -T "TITLE=%title%" -T "ALBUM=%albumtitle%" -T "DATE=%year%" -T "TRACKNUMBER=%tracknr%" -T "GENRE=%genre%" -T "COMMENT=%comment%" -T "BAND=%albuminterpret%" -T "COMPOSER=%composer%" %haslyrics%--tag-from-file=LYRICS="%lyricsfile%"%haslyrics% -T "DISCNUMBER=%cdnumber%" -T "TOTALDISCS=%totalcds%" -T "TOTALTRACKS=%numtracks%" %hascover%--picture="%coverfile%"%hascover% %source% -o %dest%
TOC of the extracted CD
Track | Start | Length | Start sector | End sector
---------------------------------------------------------
1 | 0:00.00 | 4:31.24 | 0 | 20348
2 | 4:31.24 | 4:00.63 | 20349 | 38411
3 | 8:32.12 | 3:38.25 | 38412 | 54786
4 | 12:10.37 | 3:04.33 | 54787 | 68619
5 | 15:14.70 | 4:18.47 | 68620 | 88016
6 | 19:33.42 | 6:24.01 | 88017 | 116817
7 | 25:57.43 | 5:03.21 | 116818 | 139563
8 | 31:00.64 | 4:19.06 | 139564 | 158994
9 | 35:19.70 | 4:59.32 | 158995 | 181451
10 | 40:19.27 | 3:40.42 | 181452 | 197993
11 | 43:59.69 | 1:44.01 | 197994 | 205794
12 | 45:43.70 | 3:42.50 | 205795 | 222494
13 | 49:26.45 | 4:22.12 | 222495 | 242156
14 | 53:48.57 | 4:05.48 | 242157 | 260579
15 | 57:54.30 | 3:24.00 | 260580 | 275879
16 | 61:18.30 | 3:23.08 | 275880 | 291112
Track 1
Filename D:\zzz\01 - Chasing Ingrid.wav
Pre-gap length 0:00:02.00
Peak level 96.6 %
Extraction speed 4.7 X
Track quality 100.0 %
Test CRC EA095E2C
Copy CRC EA095E2C
Track not present in AccurateRip database
Copy OK
Track 2
Filename D:\zzz\02 - Luminous Falling Caterpillars.wav
Peak level 96.6 %
Extraction speed 5.0 X
Track quality 100.0 %
Test CRC 6D0EE160
Copy CRC 6D0EE160
Track not present in AccurateRip database
Copy OK
Track 3
Filename D:\zzz\03 - Fruition.wav
Peak level 96.6 %
Extraction speed 5.2 X
Track quality 100.0 %
Test CRC C7FA6D98
Copy CRC C7FA6D98
Track not present in AccurateRip database
Copy OK
Track 4
Filename D:\zzz\04 - Look Me Up For A Looney.wav
Peak level 96.6 %
Extraction speed 5.3 X
Track quality 100.0 %
Test CRC DE006ECB
Copy CRC DE006ECB
Track not present in AccurateRip database
Copy OK
Track 5
Filename D:\zzz\05 - Don't Pick Up The Cone Snail.wav
Peak level 96.6 %
Extraction speed 5.3 X
Track quality 99.9 %
Test CRC 804F7484
Copy CRC 804F7484
Track not present in AccurateRip database
Copy OK
Track 6
Filename D:\zzz\06 - Gastronomic Infidelity.wav
Peak level 96.6 %
Extraction speed 6.5 X
Track quality 100.0 %
Test CRC 0C8B5C95
Copy CRC 0C8B5C95
Track not present in AccurateRip database
Copy OK
Track 7
Filename D:\zzz\07 - It Goes And It Blooms Below.wav
Peak level 96.6 %
Extraction speed 6.0 X
Track quality 99.9 %
Test CRC BF7C6645
Copy CRC BF7C6645
Track not present in AccurateRip database
Copy OK
Track 8
Filename D:\zzz\08 - Often Times.wav
Peak level 96.6 %
Extraction speed 6.9 X
Track quality 100.0 %
Test CRC 93DC8C09
Copy CRC 93DC8C09
Track not present in AccurateRip database
Copy OK
Track 9
Filename D:\zzz\09 - Battle Of The Mollusks.wav
Peak level 96.6 %
Extraction speed 6.5 X
Track quality 99.9 %
Test CRC 888E0C79
Copy CRC 888E0C79
Track not present in AccurateRip database
Copy OK
Track 10
Filename D:\zzz\10 - Downhill Equilibrium.wav
Peak level 96.6 %
Extraction speed 7.1 X
Track quality 100.0 %
Test CRC DE1623CA
Copy CRC DE1623CA
Track not present in AccurateRip database
Copy OK
Track 11
Filename D:\zzz\11 - Interior Squabbles.wav
Peak level 96.6 %
Extraction speed 6.2 X
Track quality 100.0 %
Test CRC 9BA6C1A6
Copy CRC 9BA6C1A6
Track not present in AccurateRip database
Copy OK
Track 12
Filename D:\zzz\12 - Ed The Scavenger.wav
Peak level 96.6 %
Extraction speed 7.4 X
Track quality 100.0 %
Test CRC 207699EE
Copy CRC 207699EE
Track not present in AccurateRip database
Copy OK
Track 13
Filename D:\zzz\13 - Betwixt.wav
Peak level 96.6 %
Extraction speed 7.7 X
Track quality 100.0 %
Test CRC A2809518
Copy CRC A2809518
Track not present in AccurateRip database
Copy OK
Track 14
Filename D:\zzz\14 - Massive Confusion.wav
Peak level 96.6 %
Extraction speed 7.8 X
Track quality 100.0 %
Test CRC F7C57E7D
Copy CRC F7C57E7D
Track not present in AccurateRip database
Copy OK
Track 15
Filename D:\zzz\15 - Quintuplet Clock Ticks.wav
Peak level 96.6 %
Extraction speed 7.8 X
Track quality 100.0 %
Test CRC 7CFACE7C
Copy CRC 7CFACE7C
Track not present in AccurateRip database
Copy OK
Track 16
Filename D:\zzz\16 - Ballad For The Brick.wav
Peak level 71.5 %
Extraction speed 7.9 X
Track quality 100.0 %
Test CRC 6A934794
Copy CRC 6A934794
Track not present in AccurateRip database
Copy OK
None of the tracks are present in the AccurateRip database
No errors occurred
End of status report
==== Log checksum DABCD970464BA734737D66441023222BF834B044F6C7AF431902A32A7783C57A ====
 
Содержание индексной карты (.CUE)
REM GENRE "Contemporary Jazz"
REM DATE 2013
REM DISCID DB0F2910
REM COMMENT "ExactAudioCopy v1.0b3"
PERFORMER "Other Three"
TITLE "Chasing Ingrid"
FILE "01 - Chasing Ingrid.wav" WAVE
TRACK 01 AUDIO
TITLE "Chasing Ingrid"
PERFORMER "Other Three"
FLAGS DCP
INDEX 01 00:00:00
FILE "02 - Luminous Falling Caterpillars.wav" WAVE
TRACK 02 AUDIO
TITLE "Luminous Falling Caterpillars"
PERFORMER "Other Three"
FLAGS DCP
INDEX 01 00:00:00
FILE "03 - Fruition.wav" WAVE
TRACK 03 AUDIO
TITLE "Fruition"
PERFORMER "Other Three"
FLAGS DCP
INDEX 01 00:00:00
FILE "04 - Look Me Up For A Looney.wav" WAVE
TRACK 04 AUDIO
TITLE "Look Me Up For A Looney"
PERFORMER "Other Three"
FLAGS DCP
INDEX 01 00:00:00
FILE "05 - Don't Pick Up The Cone Snail.wav" WAVE
TRACK 05 AUDIO
TITLE "Don't Pick Up The Cone Snail"
PERFORMER "Other Three"
FLAGS DCP
INDEX 01 00:00:00
FILE "06 - Gastronomic Infidelity.wav" WAVE
TRACK 06 AUDIO
TITLE "Gastronomic Infidelity"
PERFORMER "Other Three"
FLAGS DCP
INDEX 01 00:00:00
FILE "07 - It Goes And It Blooms Below.wav" WAVE
TRACK 07 AUDIO
TITLE "It Goes And It Blooms Below"
PERFORMER "Other Three"
FLAGS DCP
INDEX 01 00:00:00
FILE "08 - Often Times.wav" WAVE
TRACK 08 AUDIO
TITLE "Often Times"
PERFORMER "Other Three"
FLAGS DCP
INDEX 01 00:00:00
FILE "09 - Battle Of The Mollusks.wav" WAVE
TRACK 09 AUDIO
TITLE "Battle Of The Mollusks"
PERFORMER "Other Three"
FLAGS DCP
INDEX 01 00:00:00
FILE "10 - Downhill Equilibrium.wav" WAVE
TRACK 10 AUDIO
TITLE "Downhill Equilibrium"
PERFORMER "Other Three"
FLAGS DCP
INDEX 01 00:00:00
FILE "11 - Interior Squabbles.wav" WAVE
TRACK 11 AUDIO
TITLE "Interior Squabbles"
PERFORMER "Other Three"
FLAGS DCP
INDEX 01 00:00:00
FILE "12 - Ed The Scavenger.wav" WAVE
TRACK 12 AUDIO
TITLE "Ed The Scavenger"
PERFORMER "Other Three"
FLAGS DCP
INDEX 01 00:00:00
FILE "13 - Betwixt.wav" WAVE
TRACK 13 AUDIO
TITLE "Betwixt"
PERFORMER "Other Three"
FLAGS DCP
INDEX 01 00:00:00
FILE "14 - Massive Confusion.wav" WAVE
TRACK 14 AUDIO
TITLE "Massive Confusion"
PERFORMER "Other Three"
FLAGS DCP
INDEX 01 00:00:00
FILE "15 - Quintuplet Clock Ticks.wav" WAVE
TRACK 15 AUDIO
TITLE "Quintuplet Clock Ticks"
PERFORMER "Other Three"
FLAGS DCP
INDEX 01 00:00:00
FILE "16 - Ballad For The Brick.wav" WAVE
TRACK 16 AUDIO
TITLE "Ballad For The Brick"
PERFORMER "Other Three"
FLAGS DCP
INDEX 01 00:00:00
 
Лог проверки качества
d:\>d:\aucdtect -d/-m0 d:\zzz\*.wav
auCDtect: CD records authenticity detector, version 0.8.2
Copyright (c) 2004 Oleg Berngardt. All rights reserved.
Copyright (c) 2004 Alexander Djourik. All rights reserved.
------------------------------------------------------------
Processing file: [01. Chasing Ingrid.wav]
------------------------------------------------------------
This track looks like CDDA with probability 100%
------------------------------------------------------------
Processing file: [02. Luminous Falling Caterpillars.wav]
------------------------------------------------------------
This track looks like CDDA with probability 100%
------------------------------------------------------------
Processing file: [03. Fruition.wav]
------------------------------------------------------------
This track looks like CDDA with probability 100%
------------------------------------------------------------
Processing file: [04. Look Me Up For A Looney.wav]
------------------------------------------------------------
This track looks like CDDA with probability 100%
------------------------------------------------------------
Processing file: [05. Don't Pick Up The Cone Snail.wav]
------------------------------------------------------------
This track looks like CDDA with probability 100%
------------------------------------------------------------
Processing file: [06. Gastronomic Infidelity.wav]
------------------------------------------------------------
This track looks like CDDA with probability 100%
------------------------------------------------------------
Processing file: [07. It Goes And It Blooms Below.wav]
------------------------------------------------------------
This track looks like CDDA with probability 100%
------------------------------------------------------------
Processing file: [08. Often Times.wav]
------------------------------------------------------------
This track looks like CDDA with probability 100%
------------------------------------------------------------
Processing file: [09. Battle Of The Mollusks.wav]
------------------------------------------------------------
This track looks like CDDA with probability 100%
------------------------------------------------------------
Processing file: [10. Downhill Equilibrium.wav]
------------------------------------------------------------
This track looks like CDDA with probability 100%
------------------------------------------------------------
Processing file: [11. Interior Squabbles.wav]
------------------------------------------------------------
This track looks like CDDA with probability 100%
------------------------------------------------------------
Processing file: [12. Ed The Scavenger.wav]
------------------------------------------------------------
This track looks like CDDA with probability 100%
------------------------------------------------------------
Processing file: [13. Betwixt.wav]
------------------------------------------------------------
This track looks like CDDA with probability 100%
------------------------------------------------------------
Processing file: [14. Massive Confusion.wav]
------------------------------------------------------------
This track looks like CDDA with probability 100%
------------------------------------------------------------
Processing file: [15. Quintuplet Clock Ticks.wav]
------------------------------------------------------------
This track looks like CDDA with probability 100%
------------------------------------------------------------
Processing file: [16. Ballad For The Brick.wav]
------------------------------------------------------------
This track looks like CDDA with probability 100%
------------------------------------------------------------
Final Conclusion:
------------------------------------------------------------
These tracks looks like CDDA with probability 100%
 
Состав
Brad Dutz: percussion
John Fumo: trumpet
Kim Richmond: woodwinds
По всем вопросам пишите личное сообщение пользователю M0p94ok.
23:35
162
Нет комментариев. Ваш будет первым!