Вы используете незарегистрированную версию компонента "Вкладки"!

Поиск

(Free-jazz) [CD] Sam Rivers - Contrasts - 1980, FLAC (image+.cue), lossless

(Free-jazz) [CD] Sam Rivers - Contrasts - 1980, FLAC (image+.cue), lossless
Треклист:
Sam Rivers / Contrasts
Жанр: Free-jazz
Носитель: CD
Страна-производитель диска: Germany
Год издания: 1980
Издатель (лейбл): ECM
Номер по каталогу: ECM 1162 374 3508
Страна: USA
Аудиокодек: FLAC (*.flac)
Тип рипа: image+.cue
Битрейт аудио: lossless
Продолжительность: 43:36
Источник (релизер): собственный рип
Наличие сканов в содержимом раздачи: да
Треклист:
1. Circles 4:19
2. Zip 4:44
3. Solace 6:57
4. Verve Dazzle 9:16
5. Images 3:54
6. Lines 7:11
 
Лог создания рипа
Exact Audio Copy V1.0 beta 3 from 29. August 2011
Отчёт EAC об извлечении, выполненном 15. февраля 2014, 0:58
Sam Rivers / Contrasts
Дисковод: HL-DT-STDVDRAM GH22NS70 Adapter: 1 ID: 1
Режим чтения : Достоверность
Использование точного потока : Да
Отключение кэша аудио : Да
Использование указателей C2 : Нет
Коррекция смещения при чтении : 667
Способность читать области Lead-in и Lead-out : Нет
Заполнение пропущенных сэмплов тишиной : Да
Удаление блоков с тишиной в начале и конце : Нет
При вычислениях CRC использовались нулевые сэмплы : Да
Интерфейс : Встроенный Win32-интерфейс для Win NT/2000
Выходной формат : Пользовательский кодировщик
Выбранный битрейт : 768 kBit/s
Качество : Высокий
Добавление ID3-тега : Нет
Утилита сжатия : C:\Program Files\Exact Audio Copy\FLAC\FLAC.EXE
Дополнительные параметры : -V -8 -T "Date=%year%" -T "Genre=%genre%" %source%
TOC извлечённого CD
Трек | Старт | Длительность | Начальный сектор | Конечный сектор
---------------------------------------------------------------------
1 | 0:00.00 | 4:17.54 | 0 | 19328
2 | 4:17.54 | 4:44.73 | 19329 | 40701
3 | 9:02.52 | 6:57.07 | 40702 | 71983
4 | 15:59.59 | 7:12.16 | 71984 | 104399
5 | 23:12.00 | 9:16.17 | 104400 | 146116
6 | 32:28.17 | 3:54.53 | 146117 | 163719
7 | 36:22.70 | 7:11.62 | 163720 | 196106
Характеристики диапазона извлечения и сообщения об ошибках
Выбранный диапазон
Имя файла D:\торрент\Мои раздачи\Sam Rivers - Contrasts\Sam Rivers - Contrasts.wav
Пиковый уровень 83.7 %
Скорость извлечения 1.7 X
Качество диапазона 100.0 %
CRC теста 01684207
CRC копии 01684207
Копирование... OK
Ошибок не произошло
AccurateRip: сводка
Трек 1 : извлечено точно (доверие 1) [7E5A86CA] (AR v2)
Трек 2 : извлечено точно (доверие 1) [4AD9F955] (AR v2)
Трек 3 : извлечено точно (доверие 1) [1B49A6E9] (AR v2)
Трек 4 : извлечено точно (доверие 1) [6DEB8786] (AR v2)
Трек 5 : извлечено точно (доверие 1) [F5E69B10] (AR v2)
Трек 6 : извлечено точно (доверие 1) [41442926] (AR v2)
Трек 7 : извлечено точно (доверие 1) [F7F4F187] (AR v2)
Все треки извлечены точно
Конец отчёта
==== Контрольная сумма отчёта 599221B7FCE1C31117E5FC8E17A7035EF8983617DA812FA0CA232D9E34E9AC34 ====
 
Содержание индексной карты (.CUE)
REM GENRE Jazz
REM DATE 1980
REM DISCID 5E0A3607
REM COMMENT "ExactAudioCopy v1.0b3"
PERFORMER "Sam Rivers"
TITLE "Contrasts"
FILE "Sam Rivers - Contrasts.flac" WAVE
TRACK 01 AUDIO
TITLE "Circles"
PERFORMER "Sam Rivers"
INDEX 01 00:00:00
TRACK 02 AUDIO
TITLE "Zip"
PERFORMER "Sam Rivers"
INDEX 01 04:17:54
TRACK 03 AUDIO
TITLE "Solace"
PERFORMER "Sam Rivers"
INDEX 01 09:02:52
TRACK 04 AUDIO
TITLE "Verve"
PERFORMER "Sam Rivers"
INDEX 01 15:59:59
TRACK 05 AUDIO
TITLE "Dazzle"
PERFORMER "Sam Rivers"
INDEX 01 23:12:00
TRACK 06 AUDIO
TITLE "Images"
PERFORMER "Sam Rivers"
INDEX 01 32:28:17
TRACK 07 AUDIO
TITLE "Lines"
PERFORMER "Sam Rivers"
INDEX 01 36:22:70
Доп. информация: Альбом Сэма Риверса "Contrasts" долго не переиздавался на CD. Объяснить этот факт очень трудно, так как этот альбом
очень выделяется в ECM-овском каталоге, особенно на фоне того медитативно-отстраненного звучания, характерного для релизов этого лейбла.
 
Состав
Sam Rivers – soprano and tenor saxophone,flute,
George Lewis - trombone
Dave Holland – Bass
Thurman Barker - drums, marimba
Any questions -> support@pro-jazz.com. По всем вопросам пишите -> support@pro-jazz.com
23:36
188
Нет комментариев. Ваш будет первым!