Вы используете незарегистрированную версию компонента "Вкладки"!

Поиск

(Free Jazz, Contemporary Jazz) [CD] Michael Moore, Alex Maguire, Mark Helias, Han Bennink - White Widow - 2001, FLAC (image+.cue), lossless

(Free Jazz, Contemporary Jazz) [CD] Michael Moore, Alex Maguire, Mark Helias, Han Bennink - White Widow - 2001, FLAC (image+.cue), lossless
Треклист:
Michael Moore, Alex Maguire, Mark Helias, Han Bennink / White Widow
Жанр: Free Jazz, Contemporary Jazz
Носитель: CD
Страна-производитель диска: Netherlands
Год издания: 2001
Издатель (лейбл): Ramboy Recordings
Номер по каталогу: 16
Аудиокодек: FLAC (*.flac)
Тип рипа: image+.cue
Битрейт аудио: lossless
Продолжительность: 66:31
Источник (релизер): CD
Наличие сканов в содержимом раздачи: нет
Треклист:
1. Moffat (04.20)
2. Manuel's Party (07.08)
3. Coyote (04.16)
4. White Widow (06.59)
5. Aspatria (03.56)
6. Codiphile (06.41)
7. I Loves You Porgy (07.07)
8. Leave Me Alone (05.28)
9. Peabody (08.54)
10. Parma Suite - ham, cheese, Parma Violets (12.13)
 
Лог создания рипа
Exact Audio Copy V1.0 beta 2 from 29. April 2011
EAC extraction logfile from 15. February 2014, 10:42
Michael Moore / White Widow
Used drive : Optiarc DVD RW AD-7170A Adapter: 0 ID: 0
Read mode : Secure
Utilize accurate stream : Yes
Defeat audio cache : Yes
Make use of C2 pointers : No
Read offset correction : 48
Overread into Lead-In and Lead-Out : No
Fill up missing offset samples with silence : Yes
Delete leading and trailing silent blocks : No
Null samples used in CRC calculations : Yes
Used interface : Native Win32 interface for Win NT & 2000
Used output format : User Defined Encoder
Selected bitrate : 320 kBit/s
Quality : High
Add ID3 tag : No
Command line compressor : C:\Program Files\Exact Audio Copy\Flac\flac.exe
Additional command line options : -V -8 -T "Date=%year%" -T "Genre=%genre%" %source%
TOC of the extracted CD
Track | Start | Length | Start sector | End sector
---------------------------------------------------------
1 | 0:00.00 | 4:20.36 | 0 | 19535
2 | 4:20.36 | 7:09.29 | 19536 | 51739
3 | 11:29.65 | 4:15.21 | 51740 | 70885
4 | 15:45.11 | 6:59.71 | 70886 | 102381
5 | 22:45.07 | 3:57.04 | 102382 | 120160
6 | 26:42.11 | 6:05.31 | 120161 | 147566
7 | 32:47.42 | 7:06.48 | 147567 | 179564
8 | 39:54.15 | 5:27.71 | 179565 | 204160
9 | 45:22.11 | 8:55.26 | 204161 | 244311
10 | 54:17.37 | 12:13.54 | 244312 | 299340
Range status and errors
Selected range
Filename K:\ЕАС\Michael Moore - White Widow.wav
Peak level 96.6 %
Extraction speed 2.1 X
Range quality 100.0 %
Test CRC 90F4CA6F
Copy CRC 90F4CA6F
Copy OK
No errors occurred
AccurateRip summary
Track 1 accurately ripped (confidence 2) [BDF87091] (AR v1)
Track 2 accurately ripped (confidence 2) [FC8065DB] (AR v1)
Track 3 accurately ripped (confidence 2) [82EC9EC4] (AR v1)
Track 4 accurately ripped (confidence 2) [3E1ACAE8] (AR v1)
Track 5 accurately ripped (confidence 2) [06B2D2DE] (AR v1)
Track 6 accurately ripped (confidence 2) [88CBAEB7] (AR v1)
Track 7 accurately ripped (confidence 2) [3969EB91] (AR v1)
Track 8 accurately ripped (confidence 2) [80F843AB] (AR v1)
Track 9 accurately ripped (confidence 2) [4CD18736] (AR v1)
Track 10 accurately ripped (confidence 2) [2F9E28C4] (AR v1)
All tracks accurately ripped
End of status report
==== Log checksum B5844CD7391EC09C61FA97FB21FEC21963EC4DDCAA14A3B70F4114E0AF776DB4 ====
 
Содержание индексной карты (.CUE)
REM GENRE Jazz
REM DATE 2001
REM DISCID 9B0F970A
REM COMMENT "ExactAudioCopy v1.0b2"
PERFORMER "Michael Moore"
TITLE "White Widow"
FILE "Michael Moore - White Widow.flac" WAVE
TRACK 01 AUDIO
TITLE "Moffat"
PERFORMER "Michael Moore"
ISRC 000000000000
INDEX 01 00:00:00
TRACK 02 AUDIO
TITLE "Manuel's Party"
PERFORMER "Michael Moore"
ISRC 000000000000
INDEX 01 04:20:36
TRACK 03 AUDIO
TITLE "Coyote"
PERFORMER "Michael Moore"
ISRC 000000000000
INDEX 01 11:29:65
TRACK 04 AUDIO
TITLE "White Widow"
PERFORMER "Michael Moore"
ISRC 000000000000
INDEX 01 15:45:11
TRACK 05 AUDIO
TITLE "Aspatria"
PERFORMER "Michael Moore"
ISRC 000000000000
INDEX 01 22:45:07
TRACK 06 AUDIO
TITLE "Codiphile"
PERFORMER "Michael Moore"
ISRC 000000000000
INDEX 01 26:42:11
TRACK 07 AUDIO
TITLE "I Loves You Porgy"
PERFORMER "Michael Moore"
ISRC 000000000000
INDEX 01 32:47:42
TRACK 08 AUDIO
TITLE "Leave Me Alone"
PERFORMER "Michael Moore"
ISRC 000000000000
INDEX 01 39:54:15
TRACK 09 AUDIO
TITLE "Peabody"
PERFORMER "Michael Moore"
ISRC 000000000000
INDEX 01 45:22:11
TRACK 10 AUDIO
TITLE "Parma Suite - ham, cheese, Parma violets"
PERFORMER "Michael Moore"
ISRC 000000000000
INDEX 01 54:17:37
Доп. информация: Recorded on 30 January 2001 at Gateway Studios, London.
Квартет, в продолжение Clusone Трио. Это тонкая, плотная, легкая и сложная музыка.
 
Об альбоме (сборнике)
A follow up of the Clusone Trio - a quartet which can play many ways. This is light, heavy, easy and difficult music.
"White Widow splendidly showcases Moore's charms. With a mix of original compositions, free improvisation and a single standard (Gershwin's "I Loves You Porgy"), the quartet designs an eminently appealing disc. Of course, these men's musical lives have intersected for years. English pianist Alex Maguire, who recently joined Moore in duo (Mount Olympus), is a kinsman: Like Moore, he's a purveyor of grace, even in the rough. American Mark Helias fills his bass lines with strength and intelligence-a rich, engaging sound that sets off Moore and Maguire's flights. Dutch percussionist Bennink, however, is remarkably restrained here. Still, he is smart and sharp and demonstrates an uncanny and delightful sense of swing, whether he's tied-up or thrown into the mosh pit. The quartet itself swings softly or in convulsions, dynamics breathe and shift easily. In a number of cases-Moore's "Manuel's Party" and "Coyote", as well as in parts of Maguire's "Parma Suite"- there are superior melodies and elegant improvisations stirred into a fetching brew. "Peabody", a bouncing, wisp of a line bubbles with energy. As Moore's alto winds through a taut, brisk accompaniment, the band pick up steam before closing with Helias soloing over a severe piano-saxophone coda. It's another instance of White Widow's attractions, where a muscular sense of motion feeds moment of genuine lyrical beauty."
Greg Buium, Downbeat, November 2001
"The music that constitutes White Widow appeals on another level. On paper, it has the advantage of featuring the hard line rhythm section of Alex Maguire (piano), Mark Helias (bass), and Han Bennink (drums). These musicians give a smooth elasticity when the music transitions from mid-century American popular music ("I Loves You Porgy") to full group improvisation. Maguire challenges all of the numbers with a boppish technique interlaced with fiery dissonant patterns. He is best in the selections written by the leader - "White Widow" in particular, where the entire ensemble treats the music as if they have life-threatening stock in its delivery. The record bends and curves through an assortment of histrionic themes, and Moore's compositions are a unique blend of European music and progressive improvisation. Bennink is the ideal choice for the percussion chair - he is both a masterful, aggressive colorist and a humble student of jazz systems (who swings like mad when called upon to do so). From the opening notes of "Moffat," White Widow is a powerful, moving musical experience that is restless in its free spirit and soulful in its unassuming conviction."
Alan Jones
 
Состав
Michael Moore, alto saxophone, clarinet, bass clarinet;
Alex Maguire, piano;
Mark Helias, bass;
Han Bennink, drums.
Any questions -> support@pro-jazz.com. По всем вопросам пишите -> support@pro-jazz.com
23:37
144
Нет комментариев. Ваш будет первым!