Вы используете незарегистрированную версию компонента "Вкладки"!

Поиск

(Avant-Garde Jazz, Free Improvisation) [CDR] Brad Dutz & Scott Collard with Ross Hammond - Leakage Vol. 1 - 2013, FLAC (tracks+.cue), lossless

(Avant-Garde Jazz, Free Improvisation) [CDR] Brad Dutz & Scott Collard with Ross Hammond - Leakage Vol. 1 - 2013, FLAC (tracks+.cue), lossless
Треклист:
Brad Dutz & Scott Collard with Ross Hammond / Leakage Vol. 1
Жанр: Avant-Garde Jazz, Free Improvisation
Носитель: CDR
Страна-производитель диска: US
Год издания: 2013
Издатель (лейбл): Hamlin Street Music
Номер по каталогу: VM 0701
Страна: US
Аудиокодек: FLAC (*.flac)
Тип рипа: tracks+.cue
Битрейт аудио: lossless
Продолжительность: 74:10
Источник (релизер): свой фирменный диск
Наличие сканов в содержимом раздачи:
Треклист:
ACT I
1 Funding for Peanuts 2:11
2 Lost in Floss 4:38
3 Ripping off Syria 5:12
4 Prolonged Exposure to Charcoal Briquettes 7:10
5 Coalesce Small Animals Into the Vat 4:50
6 Corners of the Circle 4:31
7 The Rosier of the Doomsday Scenarios 9:16
8 Ripping off Yemen 5:28
9 Waiting for Coagulation 1:03
ACT II
10 Our Feature Presentation 4:35
11 The Day the Stargate Swallowed Christopher 4:13
12 Manifestation of Mystery 4:44
13 Ives Bucks the Trend! 4:41
14 Quagmire of War 5:07
15 Ripping off Egypt 2:42
16 Swedish Fashion Comes to Bangladesh 3:51
 
Лог создания рипа
Exact Audio Copy V1.0 beta 3 from 29. August 2011
EAC extraction logfile from 29. January 2014, 21:17
Brad Dutz & Scott Collard with Ross Hammond / Leakage Vol. 1
Used drive : PIONEER DVD-RW DVR-115D Adapter: 0 ID: 0
Read mode : Secure
Utilize accurate stream : Yes
Defeat audio cache : Yes
Make use of C2 pointers : No
Read offset correction : 48
Overread into Lead-In and Lead-Out : No
Fill up missing offset samples with silence : Yes
Delete leading and trailing silent blocks : No
Null samples used in CRC calculations : Yes
Used interface : Installed external ASPI interface
Gap handling : Appended to previous track
Used output format : User Defined Encoder
Selected bitrate : 896 kBit/s
Quality : High
Add ID3 tag : No
Command line compressor : C:\Program Files\Exact Audio Copy\FLAC\FLAC.EXE
Additional command line options : -6 -V -T "ARTIST=%artist%" -T "TITLE=%title%" -T "ALBUM=%albumtitle%" -T "DATE=%year%" -T "TRACKNUMBER=%tracknr%" -T "GENRE=%genre%" -T "COMMENT=%comment%" -T "BAND=%albuminterpret%" -T "COMPOSER=%composer%" %haslyrics%--tag-from-file=LYRICS="%lyricsfile%"%haslyrics% -T "DISCNUMBER=%cdnumber%" -T "TOTALDISCS=%totalcds%" -T "TOTALTRACKS=%numtracks%" %hascover%--picture="%coverfile%"%hascover% %source% -o %dest%
TOC of the extracted CD
Track | Start | Length | Start sector | End sector
---------------------------------------------------------
1 | 0:00.00 | 2:11.02 | 0 | 9826
2 | 2:11.02 | 4:38.19 | 9827 | 30695
3 | 6:49.21 | 5:11.55 | 30696 | 54075
4 | 12:01.01 | 7:09.59 | 54076 | 86309
5 | 19:10.60 | 4:49.68 | 86310 | 108052
6 | 24:00.53 | 4:30.43 | 108053 | 128345
7 | 28:31.21 | 9:15.46 | 128346 | 170016
8 | 37:46.67 | 5:27.68 | 170017 | 194609
9 | 43:14.60 | 1:02.51 | 194610 | 199310
10 | 44:17.36 | 4:35.12 | 199311 | 219947
11 | 48:52.48 | 4:12.38 | 219948 | 238885
12 | 53:05.11 | 4:44.24 | 238886 | 260209
13 | 57:49.35 | 4:41.32 | 260210 | 281316
14 | 62:30.67 | 5:06.73 | 281317 | 304339
15 | 67:37.65 | 2:42.27 | 304340 | 316516
16 | 70:20.17 | 3:50.41 | 316517 | 333807
Track 1
Filename D:\zzz\01 - Funding For Peanuts.wav
Pre-gap length 0:00:02.00
Peak level 98.8 %
Extraction speed 4.0 X
Track quality 100.0 %
Test CRC 6AA8E457
Copy CRC 6AA8E457
Track not present in AccurateRip database
Copy OK
Track 2
Filename D:\zzz\02 - Lost In Floss.wav
Peak level 98.8 %
Extraction speed 4.9 X
Track quality 100.0 %
Test CRC F6565C37
Copy CRC F6565C37
Track not present in AccurateRip database
Copy OK
Track 3
Filename D:\zzz\03 - Ripping Off Syria.wav
Peak level 98.8 %
Extraction speed 4.9 X
Track quality 99.9 %
Test CRC F1505499
Copy CRC F1505499
Track not present in AccurateRip database
Copy OK
Track 4
Filename D:\zzz\04 - Prolonged Exposure To Charcoal Briquettes.wav
Peak level 98.8 %
Extraction speed 6.1 X
Track quality 100.0 %
Test CRC 167FDBCB
Copy CRC 167FDBCB
Track not present in AccurateRip database
Copy OK
Track 5
Filename D:\zzz\05 - Coalesce Small Animals Into The Vat.wav
Peak level 98.8 %
Extraction speed 6.3 X
Track quality 100.0 %
Test CRC FBA8C026
Copy CRC FBA8C026
Track not present in AccurateRip database
Copy OK
Track 6
Filename D:\zzz\06 - Corners Of The Circle.wav
Peak level 98.8 %
Extraction speed 5.8 X
Track quality 99.9 %
Test CRC 28F21324
Copy CRC 28F21324
Track not present in AccurateRip database
Copy OK
Track 7
Filename D:\zzz\07 - The Rosier Of The Doomsday Scenarios.wav
Peak level 98.8 %
Extraction speed 7.3 X
Track quality 100.0 %
Test CRC 4B2CF0E8
Copy CRC 4B2CF0E8
Track not present in AccurateRip database
Copy OK
Track 8
Filename D:\zzz\08 - Ripping Off Yemen.wav
Peak level 98.8 %
Extraction speed 7.4 X
Track quality 100.0 %
Test CRC 998F579D
Copy CRC 998F579D
Track not present in AccurateRip database
Copy OK
Track 9
Filename D:\zzz\09 - Waiting For Coagulation.wav
Peak level 92.3 %
Extraction speed 5.2 X
Track quality 100.0 %
Test CRC 709A7F22
Copy CRC 709A7F22
Track not present in AccurateRip database
Copy OK
Track 10
Filename D:\zzz\10 - Our Feature Presentation.wav
Peak level 98.8 %
Extraction speed 7.5 X
Track quality 100.0 %
Test CRC D9051A4F
Copy CRC D9051A4F
Track not present in AccurateRip database
Copy OK
Track 11
Filename D:\zzz\11 - The Day The Stargate Swallowed Christopher.wav
Peak level 98.8 %
Extraction speed 7.7 X
Track quality 100.0 %
Test CRC F0B0E380
Copy CRC F0B0E380
Track not present in AccurateRip database
Copy OK
Track 12
Filename D:\zzz\12 - Manifestation Of Mystery.wav
Peak level 98.8 %
Extraction speed 8.0 X
Track quality 100.0 %
Test CRC 8C72FCE2
Copy CRC 8C72FCE2
Track not present in AccurateRip database
Copy OK
Track 13
Filename D:\zzz\13 - Ives Bucks The Trend!.wav
Peak level 98.8 %
Extraction speed 8.2 X
Track quality 100.0 %
Test CRC ABDF4927
Copy CRC ABDF4927
Track not present in AccurateRip database
Copy OK
Track 14
Filename D:\zzz\14 - Quagmire Of War.wav
Peak level 98.5 %
Extraction speed 8.4 X
Track quality 100.0 %
Test CRC B0F47C57
Copy CRC B0F47C57
Track not present in AccurateRip database
Copy OK
Track 15
Filename D:\zzz\15 - Ripping Off Egypt.wav
Peak level 96.3 %
Extraction speed 6.6 X
Track quality 99.9 %
Test CRC E2EF3D63
Copy CRC E2EF3D63
Track not present in AccurateRip database
Copy OK
Track 16
Filename D:\zzz\16 - Swedish Fashion Comes To Bangladesh.wav
Peak level 98.8 %
Extraction speed 8.4 X
Track quality 100.0 %
Test CRC C25DBAC2
Copy CRC C25DBAC2
Track not present in AccurateRip database
Copy OK
None of the tracks are present in the AccurateRip database
No errors occurred
End of status report
==== Log checksum E5BBCA23769CEA444BE1CE64B270454B20EE340AEC07A37E9529606B718126DB ====
 
Содержание индексной карты (.CUE)
REM GENRE "Free Improvisation"
REM DATE 2013
REM DISCID DA116210
REM COMMENT "ExactAudioCopy v1.0b3"
PERFORMER "Brad Dutz & Scott Collard with Ross Hammond"
TITLE "Leakage Vol. 1"
FILE "01 - Funding For Peanuts.wav" WAVE
TRACK 01 AUDIO
TITLE "Funding For Peanuts"
PERFORMER "Brad Dutz & Scott Collard with Ross Hammond"
INDEX 01 00:00:00
FILE "02 - Lost In Floss.wav" WAVE
TRACK 02 AUDIO
TITLE "Lost In Floss"
PERFORMER "Brad Dutz & Scott Collard with Ross Hammond"
INDEX 01 00:00:00
FILE "03 - Ripping Off Syria.wav" WAVE
TRACK 03 AUDIO
TITLE "Ripping Off Syria"
PERFORMER "Brad Dutz & Scott Collard with Ross Hammond"
INDEX 01 00:00:00
FILE "04 - Prolonged Exposure To Charcoal Briquettes.wav" WAVE
TRACK 04 AUDIO
TITLE "Prolonged Exposure To Charcoal Briquettes"
PERFORMER "Brad Dutz & Scott Collard with Ross Hammond"
INDEX 01 00:00:00
FILE "05 - Coalesce Small Animals Into The Vat.wav" WAVE
TRACK 05 AUDIO
TITLE "Coalesce Small Animals Into The Vat"
PERFORMER "Brad Dutz & Scott Collard with Ross Hammond"
INDEX 01 00:00:00
FILE "06 - Corners Of The Circle.wav" WAVE
TRACK 06 AUDIO
TITLE "Corners Of The Circle"
PERFORMER "Brad Dutz & Scott Collard with Ross Hammond"
INDEX 01 00:00:00
FILE "07 - The Rosier Of The Doomsday Scenarios.wav" WAVE
TRACK 07 AUDIO
TITLE "The Rosier Of The Doomsday Scenarios"
PERFORMER "Brad Dutz & Scott Collard with Ross Hammond"
INDEX 01 00:00:00
FILE "08 - Ripping Off Yemen.wav" WAVE
TRACK 08 AUDIO
TITLE "Ripping Off Yemen"
PERFORMER "Brad Dutz & Scott Collard with Ross Hammond"
INDEX 01 00:00:00
FILE "09 - Waiting For Coagulation.wav" WAVE
TRACK 09 AUDIO
TITLE "Waiting For Coagulation"
PERFORMER "Brad Dutz & Scott Collard with Ross Hammond"
INDEX 01 00:00:00
FILE "10 - Our Feature Presentation.wav" WAVE
TRACK 10 AUDIO
TITLE "Our Feature Presentation"
PERFORMER "Brad Dutz & Scott Collard with Ross Hammond"
INDEX 01 00:00:00
FILE "11 - The Day The Stargate Swallowed Christopher.wav" WAVE
TRACK 11 AUDIO
TITLE "The Day The Stargate Swallowed Christopher"
PERFORMER "Brad Dutz & Scott Collard with Ross Hammond"
INDEX 01 00:00:00
FILE "12 - Manifestation Of Mystery.wav" WAVE
TRACK 12 AUDIO
TITLE "Manifestation Of Mystery"
PERFORMER "Brad Dutz & Scott Collard with Ross Hammond"
INDEX 01 00:00:00
FILE "13 - Ives Bucks The Trend!.wav" WAVE
TRACK 13 AUDIO
TITLE "Ives Bucks The Trend!"
PERFORMER "Brad Dutz & Scott Collard with Ross Hammond"
INDEX 01 00:00:00
FILE "14 - Quagmire Of War.wav" WAVE
TRACK 14 AUDIO
TITLE "Quagmire Of War"
PERFORMER "Brad Dutz & Scott Collard with Ross Hammond"
INDEX 01 00:00:00
FILE "15 - Ripping Off Egypt.wav" WAVE
TRACK 15 AUDIO
TITLE "Ripping Off Egypt"
PERFORMER "Brad Dutz & Scott Collard with Ross Hammond"
INDEX 01 00:00:00
FILE "16 - Swedish Fashion Comes To Bangladesh.wav" WAVE
TRACK 16 AUDIO
TITLE "Swedish Fashion Comes To Bangladesh"
PERFORMER "Brad Dutz & Scott Collard with Ross Hammond"
INDEX 01 00:00:00
 
Лог проверки качества
d:\>d:\aucdtect -d/-m0 d:\zzz\*.wav
auCDtect: CD records authenticity detector, version 0.8.2
Copyright (c) 2004 Oleg Berngardt. All rights reserved.
Copyright (c) 2004 Alexander Djourik. All rights reserved.
------------------------------------------------------------
Processing file: [01. Funding For Peanuts.wav]
------------------------------------------------------------
This track looks like CDDA with probability 100%
------------------------------------------------------------
Processing file: [02. Lost In Floss.wav]
------------------------------------------------------------
This track looks like CDDA with probability 100%
------------------------------------------------------------
Processing file: [03. Ripping Off Syria.wav]
------------------------------------------------------------
This track looks like CDDA with probability 100%
------------------------------------------------------------
Processing file: [04. Prolonged Exposure To Charcoal Briquettes.wav]
------------------------------------------------------------
This track looks like CDDA with probability 100%
------------------------------------------------------------
Processing file: [05. Coalesce Small Animals Into The Vat.wav]
------------------------------------------------------------
This track looks like CDDA with probability 62%
------------------------------------------------------------
Processing file: [06. Corners Of The Circle.wav]
------------------------------------------------------------
This track looks like CDDA with probability 100%
------------------------------------------------------------
Processing file: [07. The Rosier Of The Doomsday Scenarios.wav]
------------------------------------------------------------
This track looks like CDDA with probability 100%
------------------------------------------------------------
Processing file: [08. Ripping Off Yemen.wav]
------------------------------------------------------------
This track looks like CDDA with probability 100%
------------------------------------------------------------
Processing file: [09. Waiting For Coagulation.wav]
------------------------------------------------------------
This track looks like CDDA with probability 100%
------------------------------------------------------------
Processing file: [10. Our Feature Presentation.wav]
------------------------------------------------------------
This track looks like CDDA with probability 100%
------------------------------------------------------------
Processing file: [11. The Day The Stargate Swallowed Christopher.wav]
------------------------------------------------------------
This track looks like CDDA with probability 100%
------------------------------------------------------------
Processing file: [12. Manifestation Of Mystery.wav]
------------------------------------------------------------
This track looks like CDDA with probability 100%
------------------------------------------------------------
Processing file: [13. Ives Bucks The Trend!.wav]
------------------------------------------------------------
This track looks like CDDA with probability 100%
------------------------------------------------------------
Processing file: [14. Quagmire Of War.wav]
------------------------------------------------------------
This track looks like MPEG with probability 89%
------------------------------------------------------------
Processing file: [15. Ripping Off Egypt.wav]
------------------------------------------------------------
This track looks like CDDA with probability 100%
------------------------------------------------------------
Processing file: [16. Swedish Fashion Comes To Bangladesh.wav]
------------------------------------------------------------
This track looks like CDDA with probability 100%
------------------------------------------------------------
Final Conclusion:
------------------------------------------------------------
These tracks looks like CDDA with probability 100%
Доп. информация:
 
Album Info
Produced by Scott Collard & Brad Dutz
Recorded March 5-6, 2013 at Good Dog! Studio
All improvisations by Dutz/Collard/Hammond except 14. by Brad Dutz
 
Состав
Brad Dutz: percussion
Scott Collard: keyboard
Ross Hammond: guitar
По всем вопросам пишите личное сообщение пользователю M0p94ok.
23:35
165
Нет комментариев. Ваш будет первым!