Поиск

(Avant-Garde Jazz, Modern Composition, Big Band) [CD] Szilard Mezei International Improvisers Ensemble - Karszt (2CD) - 2014, FLAC (tracks+.cue), lossless

(Avant-Garde Jazz, Modern Composition, Big Band) [CD] Szilard Mezei International Improvisers Ensemble - Karszt (2CD) - 2014, FLAC (tracks+.cue), lossless
Szilard Mezei International Improvisers Ensemble / Karszt (2CD)
Жанр: Avant-Garde Jazz, Modern Composition, Big Band
Носитель: CD
Страна-производитель диска: UK
Год издания: 2014
Издатель (лейбл): Slam Productions
Номер по каталогу: SLAMCD 550
Страна: Serbia
Аудиокодек: FLAC (*.flac)
Тип рипа: tracks+.cue
Битрейт аудио: lossless
Продолжительность: 75:18 + 77:11
Источник (релизер): свой фирменный диск
Наличие сканов в содержимом раздачи:
Треклист:
 
CD1
1. Hep 20 56:02
2. Karszt 19:12
 
CD2
1. Fak Es Bokrok Suru Lombjaitol / From Foliage Of Trees And Shrubs 16:07
2. Macskak / Cats 16:14
3. Kereg / Bark 14:24
4. Chopin Emlekere / In Memory Of Chopin 12:39
5. Hep 57 1:22
6. Jugoplastika 16:01
 
Лог создания рипа
 
CD1
Exact Audio Copy V1.0 beta 3 from 29. August 2011
EAC extraction logfile from 27. January 2014, 23:08
Szilard Mezei International Improvisers Ensemble / Karszt CD1
Used drive : PIONEER DVD-RW DVR-115D Adapter: 0 ID: 0
Read mode : Secure
Utilize accurate stream : Yes
Defeat audio cache : Yes
Make use of C2 pointers : No
Read offset correction : 48
Overread into Lead-In and Lead-Out : No
Fill up missing offset samples with silence : Yes
Delete leading and trailing silent blocks : No
Null samples used in CRC calculations : Yes
Used interface : Installed external ASPI interface
Gap handling : Appended to previous track
Used output format : User Defined Encoder
Selected bitrate : 896 kBit/s
Quality : High
Add ID3 tag : No
Command line compressor : C:\Program Files\Exact Audio Copy\FLAC\FLAC.EXE
Additional command line options : -6 -V -T "ARTIST=%artist%" -T "TITLE=%title%" -T "ALBUM=%albumtitle%" -T "DATE=%year%" -T "TRACKNUMBER=%tracknr%" -T "GENRE=%genre%" -T "COMMENT=%comment%" -T "BAND=%albuminterpret%" -T "COMPOSER=%composer%" %haslyrics%--tag-from-file=LYRICS="%lyricsfile%"%haslyrics% -T "DISCNUMBER=%cdnumber%" -T "TOTALDISCS=%totalcds%" -T "TOTALTRACKS=%numtracks%" %hascover%--picture="%coverfile%"%hascover% %source% -o %dest%
TOC of the extracted CD
Track | Start | Length | Start sector | End sector
---------------------------------------------------------
1 | 0:00.00 | 56:05.40 | 0 | 252414
2 | 56:05.40 | 19:12.71 | 252415 | 338885
Track 1
Filename D:\zzz\01 - Hep 20.wav
Pre-gap length 0:00:02.00
Peak level 98.8 %
Extraction speed 7.3 X
Track quality 100.0 %
Test CRC BBD0631E
Copy CRC BBD0631E
Track not present in AccurateRip database
Copy OK
Track 2
Filename D:\zzz\02 - Karszt.wav
Pre-gap length 0:00:03.00
Peak level 83.5 %
Extraction speed 9.7 X
Track quality 100.0 %
Test CRC 5FD65058
Copy CRC 5FD65058
Track not present in AccurateRip database
Copy OK
None of the tracks are present in the AccurateRip database
No errors occurred
End of status report
==== Log checksum 08C416A8F31BA10D97C8352E09F71B02A632BE4F8BBD017915570A8D41A8C259 ====
 
CD2
Exact Audio Copy V1.0 beta 3 from 29. August 2011
EAC extraction logfile from 28. January 2014, 21:35
Szilard Mezei International Improvisers Ensemble / Karszt CD2
Used drive : PIONEER DVD-RW DVR-115D Adapter: 0 ID: 0
Read mode : Secure
Utilize accurate stream : Yes
Defeat audio cache : Yes
Make use of C2 pointers : No
Read offset correction : 48
Overread into Lead-In and Lead-Out : No
Fill up missing offset samples with silence : Yes
Delete leading and trailing silent blocks : No
Null samples used in CRC calculations : Yes
Used interface : Installed external ASPI interface
Gap handling : Appended to previous track
Used output format : User Defined Encoder
Selected bitrate : 896 kBit/s
Quality : High
Add ID3 tag : No
Command line compressor : C:\Program Files\Exact Audio Copy\FLAC\FLAC.EXE
Additional command line options : -6 -V -T "ARTIST=%artist%" -T "TITLE=%title%" -T "ALBUM=%albumtitle%" -T "DATE=%year%" -T "TRACKNUMBER=%tracknr%" -T "GENRE=%genre%" -T "COMMENT=%comment%" -T "BAND=%albuminterpret%" -T "COMPOSER=%composer%" %haslyrics%--tag-from-file=LYRICS="%lyricsfile%"%haslyrics% -T "DISCNUMBER=%cdnumber%" -T "TOTALDISCS=%totalcds%" -T "TOTALTRACKS=%numtracks%" %hascover%--picture="%coverfile%"%hascover% %source% -o %dest%
TOC of the extracted CD
Track | Start | Length | Start sector | End sector
---------------------------------------------------------
1 | 0:00.00 | 16:11.72 | 0 | 72896
2 | 16:11.72 | 16:18.34 | 72897 | 146280
3 | 32:30.31 | 14:28.55 | 146281 | 211435
4 | 46:59.11 | 12:43.32 | 211436 | 268692
5 | 59:42.43 | 1:26.74 | 268693 | 275216
6 | 61:09.42 | 16:01.63 | 275217 | 347354
Track 1
Filename D:\zzz\01 - Fak Es Bokrok Suru Lombjaitol , From Foliage Of Trees And Shrubs.wav
Pre-gap length 0:00:02.00
Peak level 82.6 %
Extraction speed 5.4 X
Track quality 99.9 %
Test CRC 82FC80E9
Copy CRC 82FC80E9
Track not present in AccurateRip database
Copy OK
Track 2
Filename D:\zzz\02 - Macskak , Cats.wav
Pre-gap length 0:00:04.00
Peak level 84.9 %
Extraction speed 7.3 X
Track quality 100.0 %
Test CRC 166DE985
Copy CRC 166DE985
Track not present in AccurateRip database
Copy OK
Track 3
Filename D:\zzz\03 - Kereg , Bark.wav
Pre-gap length 0:00:04.00
Peak level 83.5 %
Extraction speed 8.3 X
Track quality 100.0 %
Test CRC EDC3EA43
Copy CRC EDC3EA43
Track not present in AccurateRip database
Copy OK
Track 4
Filename D:\zzz\04 - Chopin Emlekere , In Memory Of Chapin.wav
Pre-gap length 0:00:04.00
Peak level 91.2 %
Extraction speed 9.1 X
Track quality 100.0 %
Test CRC B8113602
Copy CRC B8113602
Track not present in AccurateRip database
Copy OK
Track 5
Filename D:\zzz\05 - Hep 57.wav
Pre-gap length 0:00:04.00
Peak level 61.4 %
Extraction speed 5.4 X
Track quality 99.8 %
Test CRC 504C2424
Copy CRC 504C2424
Track not present in AccurateRip database
Copy OK
Track 6
Filename D:\zzz\06 - Jugoplastika.wav
Pre-gap length 0:00:04.00
Peak level 95.9 %
Extraction speed 9.7 X
Track quality 99.9 %
Test CRC 58A8D751
Copy CRC 58A8D751
Track not present in AccurateRip database
Copy OK
None of the tracks are present in the AccurateRip database
No errors occurred
End of status report
==== Log checksum 6ECE658CDE6C88B8B868B76FD4ABF88E2595E269CF4578C67B4AC087C1845E45 ====
 
Содержание индексной карты (.CUE)
 
CD1
REM GENRE "Avant-Garde Jazz"
REM DATE 2014
REM DISCID 1511A602
REM COMMENT "ExactAudioCopy v1.0b3"
PERFORMER "Szilard Mezei International Improvisers Ensemble"
TITLE "Karszt CD1"
FILE "01 - Hep 20.wav" WAVE
TRACK 01 AUDIO
TITLE "Hep 20"
PERFORMER "Szilard Mezei International Improvisers Ensemble"
INDEX 01 00:00:00
TRACK 02 AUDIO
TITLE "Karszt"
PERFORMER "Szilard Mezei International Improvisers Ensemble"
INDEX 00 56:02:40
FILE "02 - Karszt.wav" WAVE
INDEX 01 00:00:00
 
CD2
REM GENRE "Avant-Garde Jazz"
REM DATE 2014
REM DISCID 58121706
REM COMMENT "ExactAudioCopy v1.0b3"
PERFORMER "Szilard Mezei International Improvisers Ensemble"
TITLE "Karszt CD2"
FILE "01 - Fak Es Bokrok Suru Lombjaitol , From Foliage Of Trees And Shrubs.wav" WAVE
TRACK 01 AUDIO
TITLE "Fak Es Bokrok Suru Lombjaitol / From Foliage Of Trees And Shrubs"
PERFORMER "Szilard Mezei International Improvisers Ensemble"
INDEX 01 00:00:00
TRACK 02 AUDIO
TITLE "Macskak / Cats"
PERFORMER "Szilard Mezei International Improvisers Ensemble"
INDEX 00 16:07:72
FILE "02 - Macskak , Cats.wav" WAVE
INDEX 01 00:00:00
TRACK 03 AUDIO
TITLE "Kereg / Bark"
PERFORMER "Szilard Mezei International Improvisers Ensemble"
INDEX 00 16:14:34
FILE "03 - Kereg , Bark.wav" WAVE
INDEX 01 00:00:00
TRACK 04 AUDIO
TITLE "Chopin Emlekere / In Memory Of Chapin"
PERFORMER "Szilard Mezei International Improvisers Ensemble"
INDEX 00 14:24:55
FILE "04 - Chopin Emlekere , In Memory Of Chapin.wav" WAVE
INDEX 01 00:00:00
TRACK 05 AUDIO
TITLE "Hep 57"
PERFORMER "Szilard Mezei International Improvisers Ensemble"
INDEX 00 12:39:32
FILE "05 - Hep 57.wav" WAVE
INDEX 01 00:00:00
TRACK 06 AUDIO
TITLE "Jugoplastika"
PERFORMER "Szilard Mezei International Improvisers Ensemble"
INDEX 00 01:22:74
FILE "06 - Jugoplastika.wav" WAVE
INDEX 01 00:00:00
 
Лог проверки качества
d:\>d:\aucdtect -d/-m0 d:\zzz\*.wav
auCDtect: CD records authenticity detector, version 0.8.2
Copyright (c) 2004 Oleg Berngardt. All rights reserved.
Copyright (c) 2004 Alexander Djourik. All rights reserved.
------------------------------------------------------------
Processing file: [01. Fak Es Bokrok Suru Lombjaitol - From Foliage Of Trees And Shrubs.wav]
------------------------------------------------------------
This track looks like CDDA with probability 100%
------------------------------------------------------------
Processing file: [01. Hep 20.wav]
------------------------------------------------------------
This track looks like CDDA with probability 100%
------------------------------------------------------------
Processing file: [02. Karszt.wav]
------------------------------------------------------------
This track looks like CDDA with probability 100%
------------------------------------------------------------
Processing file: [02. Macskak - Cats.wav]
------------------------------------------------------------
This track looks like CDDA with probability 99%
------------------------------------------------------------
Processing file: [03. Kereg - Bark.wav]
------------------------------------------------------------
This track looks like CDDA with probability 100%
------------------------------------------------------------
Processing file: [04. Chopin Emlekere - In Memory Of Chapin.wav]
------------------------------------------------------------
This track looks like CDDA with probability 100%
------------------------------------------------------------
Processing file: [05. Hep 57.wav]
------------------------------------------------------------
This track looks like CDDA with probability 100%
------------------------------------------------------------
Processing file: [06. Jugoplastika.wav]
------------------------------------------------------------
This track looks like CDDA with probability 100%
------------------------------------------------------------
Final Conclusion:
------------------------------------------------------------
These tracks looks like CDDA with probability 100%
Доп. информация:
 
Album Info & Slam Press Release
Composed by Szilard Mezei
Recorded Jan. 28 & 29, 2012 at Kulturni Centar Novog Sada, Novi Sad, Serbia by Lazar Zivanac (Studio Vilenjak) and Sasa Milankov (Mipla Productions)
Mixed by Szilard Mezei & Lazar Zivanac (Studio Vilenjak)
Mastered by Szilard Mezei
Cover graphics by Erszebet Mezei
Cover design by Imre Sebestyen jr. - UNITgraphics.com
Liner notes by Andrew Choate
Recording released with the help of Pokrajinski Sekretarijat za Kulturu i Javno Informisanjem, Vojvodina, Serbia
Mezei's biggest project – two and a half hours of music by 23 international musicians recorded in Novi Sad, Serbia, January 2012. Mezei in complete control with baton and viola, conducting a majestic performance. Hungarian/Serbian Mezei has justifiably attracted highest praise and appreciation from critics and his listeners. Viewed by many as the successor to the late Hungarian composer György Szabados, his music like that of Szabados and Bartok before him, draws on the strengths of the Hungarian folk music tradition.
The music on these two CDs is a great example of his integration of composition and improvisation.
 
Состав
Szilard Mezei: viola, lead
Bogdan Rankovic: bass clarinet, alto sax
Peter Bede: tenor sax, alto sax, tarogato
Gergo Kovats: tenor sax, soprano sax
Bela Burany: baritone sax
Adam Meggyes: trumpet
Branislav Aksin: trombone
Jens Balder: trombone
Laura Levay-Aksin: flute, piccolo
Gergely Ittzes: flute, alto flute, bass flute, piccolo
Andrea Berendika: flute, alto flute, piccolo
Mate Pozsar: piano
Jon Hemmersam: acoustic guitar
Tijana Stankovic: violin
Albert Markos: violoncello
Zoltan Csanyi: double bass
Ervin Malina: double bass
Erno Hock: double bass
Joel Grip: double bass
Ivan Burka: marimba
Jelena Raskovic: vibraphone
Hunor G. Szabo: drums, percussion
Istvan Csik: drums, percussion
23:34
262
Нет комментариев. Ваш будет первым!