Вы используете незарегистрированную версию компонента "Вкладки"!

Поиск

(Free Jazz, Free Improvisation, British Jazz) [CD] The Number (Gary Curson, Keith Tippett, John Edwards, Mark Sanders) - The Making Of Quiet Things - 2006, FLAC (tracks+.cue), lossless

(Free Jazz, Free Improvisation, British Jazz) [CD] The Number (Gary Curson, Keith Tippett, John Edwards, Mark Sanders) - The Making Of Quiet Things - 2006, FLAC (tracks+.cue), lossless
Треклист:
The Number / The Making Of Quiet Things
Жанр: Free Jazz, Free Improvisation, British Jazz
Носитель: CD
Страна-производитель диска: UK
Год издания: 2006
Издатель (лейбл): Slam Productions
Номер по каталогу: SLAMCD 269
Страна: UK
Аудиокодек: FLAC (*.flac)
Тип рипа: tracks+.cue
Битрейт аудио: lossless
Продолжительность: 58:11
Источник (релизер): свой фирменный диск
Наличие сканов в содержимом раздачи:
Треклист:
1. Collective 2 20:42
2. Bass & Piano Duet 5:53
3. Collective 3 4:32
4. Bass & Sax Duet 3:57
5. Collective 1 17:14
6. Piano Solo 3:57
 
Лог создания рипа
Exact Audio Copy V1.0 beta 3 from 29. August 2011
EAC extraction logfile from 25. January 2014, 23:32
The Number / The Making Of Quiet Things
Used drive : TSSTcorpCDDVDW SH-222AB Adapter: 1 ID: 0
Read mode : Secure
Utilize accurate stream : Yes
Defeat audio cache : Yes
Make use of C2 pointers : No
Read offset correction : 6
Overread into Lead-In and Lead-Out : No
Fill up missing offset samples with silence : Yes
Delete leading and trailing silent blocks : No
Null samples used in CRC calculations : Yes
Used interface : Installed external ASPI interface
Gap handling : Appended to previous track
Used output format : User Defined Encoder
Selected bitrate : 896 kBit/s
Quality : High
Add ID3 tag : No
Command line compressor : C:\Program Files\Exact Audio Copy\FLAC\FLAC.EXE
Additional command line options : -6 -V -T "ARTIST=%artist%" -T "TITLE=%title%" -T "ALBUM=%albumtitle%" -T "DATE=%year%" -T "TRACKNUMBER=%tracknr%" -T "GENRE=%genre%" -T "COMMENT=%comment%" -T "BAND=%albuminterpret%" -T "COMPOSER=%composer%" %haslyrics%--tag-from-file=LYRICS="%lyricsfile%"%haslyrics% -T "DISCNUMBER=%cdnumber%" -T "TOTALDISCS=%totalcds%" -T "TOTALTRACKS=%numtracks%" %hascover%--picture="%coverfile%"%hascover% %source% -o %dest%
TOC of the extracted CD
Track | Start | Length | Start sector | End sector
---------------------------------------------------------
1 | 0:00.00 | 20:42.29 | 0 | 93178
2 | 20:42.29 | 5:53.40 | 93179 | 119693
3 | 26:35.69 | 4:32.50 | 119694 | 140143
4 | 31:08.44 | 3:57.13 | 140144 | 157931
5 | 35:05.57 | 17:14.48 | 157932 | 235529
6 | 52:20.30 | 5:51.39 | 235530 | 261893
Track 1
Filename D:\zzz\01 - Collective 2.wav
Pre-gap length 0:00:02.00
Peak level 96.6 %
Extraction speed 3.1 X
Track quality 100.0 %
Test CRC 710BB3D3
Copy CRC 710BB3D3
Track not present in AccurateRip database
Copy OK
Track 2
Filename D:\zzz\02 - Bass & Piano Duet.wav
Peak level 96.5 %
Extraction speed 2.6 X
Track quality 99.9 %
Test CRC C646321D
Copy CRC C646321D
Track not present in AccurateRip database
Copy OK
Track 3
Filename D:\zzz\03 - Collective 3.wav
Peak level 96.5 %
Extraction speed 2.8 X
Track quality 100.0 %
Test CRC 1C29C144
Copy CRC 1C29C144
Track not present in AccurateRip database
Copy OK
Track 4
Filename D:\zzz\04 - Bass & Sax Duet.wav
Peak level 96.2 %
Extraction speed 2.7 X
Track quality 100.0 %
Test CRC 9CDF85F3
Copy CRC 9CDF85F3
Track not present in AccurateRip database
Copy OK
Track 5
Filename D:\zzz\05 - Collective 1.wav
Peak level 96.5 %
Extraction speed 3.0 X
Track quality 100.0 %
Test CRC C1F1B496
Copy CRC C1F1B496
Track not present in AccurateRip database
Copy OK
Track 6
Filename D:\zzz\06 - Piano Solo.wav
Peak level 96.5 %
Extraction speed 2.8 X
Track quality 100.0 %
Test CRC B7E3BC57
Copy CRC B7E3BC57
Track not present in AccurateRip database
Copy OK
None of the tracks are present in the AccurateRip database
No errors occurred
End of status report
==== Log checksum 2019A11A8B57F4EC8568C79EC22BDEDB90CA84B943D84C8B737AB0B7E7442025 ====
 
Содержание индексной карты (.CUE)
REM GENRE "Free Jazz"
REM DATE 2006
REM DISCID 470DA306
REM COMMENT "ExactAudioCopy v1.0b3"
PERFORMER "The Number"
TITLE "The Making Of Quiet Things"
FILE "01 - Collective 2.wav" WAVE
TRACK 01 AUDIO
TITLE "Collective 2"
PERFORMER "The Number"
INDEX 01 00:00:00
FILE "02 - Bass & Piano Duet.wav" WAVE
TRACK 02 AUDIO
TITLE "Bass & Piano Duet"
PERFORMER "The Number"
INDEX 01 00:00:00
FILE "03 - Collective 3.wav" WAVE
TRACK 03 AUDIO
TITLE "Collective 3"
PERFORMER "The Number"
INDEX 01 00:00:00
FILE "04 - Bass & Sax Duet.wav" WAVE
TRACK 04 AUDIO
TITLE "Bass & Sax Duet"
PERFORMER "The Number"
INDEX 01 00:00:00
FILE "05 - Collective 1.wav" WAVE
TRACK 05 AUDIO
TITLE "Collective 1"
PERFORMER "The Number"
INDEX 01 00:00:00
FILE "06 - Piano Solo.wav" WAVE
TRACK 06 AUDIO
TITLE "Piano Solo"
PERFORMER "The Number"
INDEX 01 00:00:00
 
Лог проверки качества
d:\>d:\aucdtect -d/-m0 d:\zzz\*.wav
auCDtect: CD records authenticity detector, version 0.8.2
Copyright (c) 2004 Oleg Berngardt. All rights reserved.
Copyright (c) 2004 Alexander Djourik. All rights reserved.
------------------------------------------------------------
Processing file: [01. Collective 2.wav]
------------------------------------------------------------
This track looks like CDDA with probability 99%
------------------------------------------------------------
Processing file: [02. Bass & Piano Duet.wav]
------------------------------------------------------------
This track looks like CDDA with probability 100%
------------------------------------------------------------
Processing file: [03. Collective 3.wav]
------------------------------------------------------------
This track looks like CDDA with probability 100%
------------------------------------------------------------
Processing file: [04. Bass & Sax Duet.wav]
------------------------------------------------------------
This track looks like CDDA with probability 100%
------------------------------------------------------------
Processing file: [05. Collective 1.wav]
------------------------------------------------------------
This track looks like CDDA with probability 100%
------------------------------------------------------------
Processing file: [06. Piano Solo.wav]
------------------------------------------------------------
This track looks like CDDA with probability 99%
------------------------------------------------------------
Final Conclusion:
------------------------------------------------------------
These tracks looks like CDDA with probability 100%
Доп. информация:
 
Album Info
Recorded at Vestry Hall, London College of Music, Thames Valley University, 19-20 July 2005
Mixed at Vestry Hall, 28 Sept 2005, and Borglands, 1 & 8 May 2006
Produced by Justin Paterson
Engineered by Paul Borg
Mixed by Justin Paterson and Paul Borg
Mastered by Justin Paterson
Assistant engineer: Andy Johnson
Assistant: Simon Lowry
Photography: Sue Cunningham
Artwork: Val Tevenson
Production co-ordinator: Margo Sagov
Thanks to Iain Hodge
 
Состав
Gary Curson: alto sax
Keith Tippett: piano
John Edwards: bass
Mark Sanders: drums
По всем вопросам пишите личное сообщение пользователю M0p94ok.
23:33
152
Нет комментариев. Ваш будет первым!