Вы используете незарегистрированную версию компонента "Вкладки"!

Поиск

(Avant-Garde Jazz, Free Improvisation) [CD] Steve Harris Zaum - Above Our Heads The Sky Splits Open - 2004, FLAC (tracks+.cue), lossless

(Avant-Garde Jazz, Free Improvisation) [CD] Steve Harris Zaum - Above Our Heads The Sky Splits Open - 2004, FLAC (tracks+.cue), lossless
Треклист:
Steve Harris Zaum / Above Our Heads The Sky Splits Open
Жанр: Avant-Garde Jazz, Free Improvisation
Носитель: CD
Страна-производитель диска: UK
Год издания: 2004
Издатель (лейбл): Slam Productions
Номер по каталогу: SLAMCD 258
Страна: UK
Аудиокодек: FLAC (*.flac)
Тип рипа: tracks+.cue
Битрейт аудио: lossless
Продолжительность: 57:24
Источник (релизер): свой фирменный диск
Наличие сканов в содержимом раздачи:
Треклист:
1. Called To Rise 9:25
2. The Cherry Dance 3:00
3. Trans 5:08
4. Straw Foot 5:47
5. Natchez 1:16
6. [Is That] All You Can See 5:31
7. Trouble At House-For-One 3:44
8. Secular Drift 3:08
9. White Pass Ink Black Moon 19:38
 
Лог создания рипа
Exact Audio Copy V1.0 beta 3 from 29. August 2011
EAC extraction logfile from 25. January 2014, 18:17
Steve Harris & Zaum / Above Our Heads The Sky Splits Open
Used drive : PIONEER DVD-RW DVR-115D Adapter: 0 ID: 0
Read mode : Secure
Utilize accurate stream : Yes
Defeat audio cache : Yes
Make use of C2 pointers : No
Read offset correction : 48
Overread into Lead-In and Lead-Out : No
Fill up missing offset samples with silence : Yes
Delete leading and trailing silent blocks : No
Null samples used in CRC calculations : Yes
Used interface : Installed external ASPI interface
Gap handling : Appended to previous track
Used output format : User Defined Encoder
Selected bitrate : 896 kBit/s
Quality : High
Add ID3 tag : No
Command line compressor : C:\Program Files\Exact Audio Copy\FLAC\FLAC.EXE
Additional command line options : -6 -V -T "ARTIST=%artist%" -T "TITLE=%title%" -T "ALBUM=%albumtitle%" -T "DATE=%year%" -T "TRACKNUMBER=%tracknr%" -T "GENRE=%genre%" -T "COMMENT=%comment%" -T "BAND=%albuminterpret%" -T "COMPOSER=%composer%" %haslyrics%--tag-from-file=LYRICS="%lyricsfile%"%haslyrics% -T "DISCNUMBER=%cdnumber%" -T "TOTALDISCS=%totalcds%" -T "TOTALTRACKS=%numtracks%" %hascover%--picture="%coverfile%"%hascover% %source% -o %dest%
TOC of the extracted CD
Track | Start | Length | Start sector | End sector
---------------------------------------------------------
1 | 0:00.00 | 9:29.68 | 0 | 42742
2 | 9:29.68 | 3:05.58 | 42743 | 56675
3 | 12:35.51 | 5:11.13 | 56676 | 80013
4 | 17:46.64 | 5:51.50 | 80014 | 106388
5 | 23:38.39 | 1:21.57 | 106389 | 112520
6 | 25:00.21 | 5:37.65 | 112521 | 137860
7 | 30:38.11 | 3:51.19 | 137861 | 155204
8 | 34:29.30 | 3:12.05 | 155205 | 169609
9 | 37:41.35 | 19:42.54 | 169610 | 258313
Track 1
Filename D:\zzz\01 - Called To Rise.wav
Pre-gap length 0:00:02.00
Peak level 92.2 %
Extraction speed 4.9 X
Track quality 100.0 %
Test CRC 9C53857D
Copy CRC 9C53857D
Cannot be verified as accurate (confidence 1) [722F82D8], AccurateRip returned [552316E2] (AR v2)
Copy OK
Track 2
Filename D:\zzz\02 - The Cherry Dance.wav
Pre-gap length 0:00:00.24
Peak level 89.0 %
Extraction speed 3.7 X
Track quality 99.8 %
Test CRC F5D288CD
Copy CRC F5D288CD
Cannot be verified as accurate (confidence 1) [932861CD], AccurateRip returned [0FC13C83] (AR v2)
Copy OK
Track 3
Filename D:\zzz\03 - Trans.wav
Pre-gap length 0:00:00.24
Peak level 92.2 %
Extraction speed 5.7 X
Track quality 100.0 %
Test CRC D2D1E26B
Copy CRC D2D1E26B
Cannot be verified as accurate (confidence 1) [CAB02B64], AccurateRip returned [63790CCF] (AR v2)
Copy OK
Track 4
Filename D:\zzz\04 - Straw Foot.wav
Peak level 92.2 %
Extraction speed 6.2 X
Track quality 100.0 %
Test CRC C862E026
Copy CRC C862E026
Cannot be verified as accurate (confidence 1) [6EE8162E], AccurateRip returned [904604A6] (AR v2)
Copy OK
Track 5
Filename D:\zzz\05 - Natchez.wav
Pre-gap length 0:00:00.24
Peak level 86.9 %
Extraction speed 4.9 X
Track quality 100.0 %
Test CRC E6BDC005
Copy CRC E6BDC005
Cannot be verified as accurate (confidence 1) [4645DF1A], AccurateRip returned [0380465D] (AR v2)
Copy OK
Track 6
Filename D:\zzz\06 - [Is That] All You Can See.wav
Pre-gap length 0:00:00.24
Peak level 55.0 %
Extraction speed 6.7 X
Track quality 100.0 %
Test CRC 363597F5
Copy CRC 363597F5
Cannot be verified as accurate (confidence 1) [3D681011], AccurateRip returned [41A5833F] (AR v2)
Copy OK
Track 7
Filename D:\zzz\07 - Trouble At House-For-One.wav
Pre-gap length 0:00:00.24
Peak level 91.7 %
Extraction speed 6.7 X
Track quality 100.0 %
Test CRC CCF26A9E
Copy CRC CCF26A9E
Cannot be verified as accurate (confidence 1) [42C61D5A], AccurateRip returned [3E331832] (AR v2)
Copy OK
Track 8
Filename D:\zzz\08 - Secular Drift.wav
Pre-gap length 0:00:00.24
Peak level 36.8 %
Extraction speed 6.7 X
Track quality 100.0 %
Test CRC 8519EDE1
Copy CRC 8519EDE1
Cannot be verified as accurate (confidence 1) [76B35C6B], AccurateRip returned [0C341F9C] (AR v2)
Copy OK
Track 9
Filename D:\zzz\09 - White Pass Ink Black Moon.wav
Pre-gap length 0:00:00.24
Peak level 92.2 %
Extraction speed 8.4 X
Track quality 100.0 %
Test CRC 708F02AE
Copy CRC 708F02AE
Cannot be verified as accurate (confidence 1) [EE2FB694], AccurateRip returned [34DFD239] (AR v2)
Copy OK
No tracks could be verified as accurate
You may have a different pressing from the one(s) in the database
No errors occurred
End of status report
==== Log checksum 708B8DFE7113DB03403D46FCBEE7CAA3D64F6B89785E2738A950B164724D76F1 ====
 
Содержание индексной карты (.CUE)
REM GENRE "Free Improvisation"
REM DATE 2004
REM DISCID 640D7409
REM COMMENT "ExactAudioCopy v1.0b3"
PERFORMER "Steve Harris & Zaum"
TITLE "Above Our Heads The Sky Splits Open"
FILE "01 - Called To Rise.wav" WAVE
TRACK 01 AUDIO
TITLE "Called To Rise"
PERFORMER "Steve Harris & Zaum"
FLAGS DCP
INDEX 01 00:00:00
TRACK 02 AUDIO
TITLE "The Cherry Dance"
PERFORMER "Steve Harris & Zaum"
FLAGS DCP
INDEX 00 09:29:44
FILE "02 - The Cherry Dance.wav" WAVE
INDEX 01 00:00:00
TRACK 03 AUDIO
TITLE "Trans"
PERFORMER "Steve Harris & Zaum"
FLAGS DCP
INDEX 00 03:05:34
FILE "03 - Trans.wav" WAVE
INDEX 01 00:00:00
FILE "04 - Straw Foot.wav" WAVE
TRACK 04 AUDIO
TITLE "Straw Foot"
PERFORMER "Steve Harris & Zaum"
FLAGS DCP
INDEX 01 00:00:00
TRACK 05 AUDIO
TITLE "Natchez"
PERFORMER "Steve Harris & Zaum"
FLAGS DCP
INDEX 00 05:51:26
FILE "05 - Natchez.wav" WAVE
INDEX 01 00:00:00
TRACK 06 AUDIO
TITLE "[Is That] All You Can See"
PERFORMER "Steve Harris & Zaum"
FLAGS DCP
INDEX 00 01:21:33
FILE "06 - [Is That] All You Can See.wav" WAVE
INDEX 01 00:00:00
TRACK 07 AUDIO
TITLE "Trouble At House-For-One"
PERFORMER "Steve Harris & Zaum"
FLAGS DCP
INDEX 00 05:37:41
FILE "07 - Trouble At House-For-One.wav" WAVE
INDEX 01 00:00:00
TRACK 08 AUDIO
TITLE "Secular Drift"
PERFORMER "Steve Harris & Zaum"
FLAGS DCP
INDEX 00 03:50:70
FILE "08 - Secular Drift.wav" WAVE
INDEX 01 00:00:00
TRACK 09 AUDIO
TITLE "White Pass Ink Black Moon"
PERFORMER "Steve Harris & Zaum"
FLAGS DCP
INDEX 00 03:11:56
FILE "09 - White Pass Ink Black Moon.wav" WAVE
INDEX 01 00:00:00
 
Лог проверки качества
d:\>d:\aucdtect -d/-m0 d:\zzz\*.wav
auCDtect: CD records authenticity detector, version 0.8.2
Copyright (c) 2004 Oleg Berngardt. All rights reserved.
Copyright (c) 2004 Alexander Djourik. All rights reserved.
------------------------------------------------------------
Processing file: [01. Called To Rise.wav]
------------------------------------------------------------
This track looks like CDDA with probability 100%
------------------------------------------------------------
Processing file: [02. The Cherry Dance.wav]
------------------------------------------------------------
This track looks like CDDA with probability 100%
------------------------------------------------------------
Processing file: [03. Trans.wav]
------------------------------------------------------------
This track looks like CDDA with probability 100%
------------------------------------------------------------
Processing file: [04. Straw Foot.wav]
------------------------------------------------------------
This track looks like CDDA with probability 100%
------------------------------------------------------------
Processing file: [05. Natchez.wav]
------------------------------------------------------------
This track looks like CDDA with probability 100%
------------------------------------------------------------
Processing file: [06. [Is That] All You Can See.wav]
------------------------------------------------------------
This track looks like CDDA with probability 100%
------------------------------------------------------------
Processing file: [07. Trouble At House-For-One.wav]
------------------------------------------------------------
This track looks like CDDA with probability 100%
------------------------------------------------------------
Processing file: [08. Secular Drift.wav]
------------------------------------------------------------
This track looks like CDDA with probability 100%
------------------------------------------------------------
Processing file: [09. White Pass Ink Black Moon.wav]
------------------------------------------------------------
This track looks like CDDA with probability 100%
------------------------------------------------------------
Final Conclusion:
------------------------------------------------------------
These tracks looks like CDDA with probability 100%
Доп. информация:
 
Album Info & Jazzcds.co.uk Review
Improvisations recorded live in performance at the Study Gallery, Poole, 5/6 March 2004
All instant compositions Zaum
Engineering & production: Jamie King
Post production, edit & mix: Jamie King & Steve Harris at Big Ear
Design: Matthew Olczak
Locked in a concrete box and given a funeral by the strong men of the future. The traveller in time declares that the future is masculine and that all people will look happy, although happiness itself no longer exists. Meanwhile, the man with bad intentions wages war and the terrified fat man finds himself unable to understand the modern world. The opera ends as an aeroplane crashes into the stage. - The Futurist opera, Victory Over The Sun, premiered in St Petersburg in 1913,
I guess Harris is best known as the bloke who has sat at the back in Pinski Zoo since the late 80s, although he has always been involved in various other improvising projects. Zaum, formed in 2002 and still developing, is one of the most impressive of these, and shows a very different aspect of his talents. The band’s first album, the confusingly-titled Zaum, was well received, and Above Our Heads deserves at least as much acclaim. This time Zaum is augmented by a second guitar (Olczak), the Chrome Strings, plus live and found samples under the control of Newton. The textures are still way, way lighter and more spacious than the dense, harmolodic, power-funk environment of PZ, although very occasionally there is an echo of that venerable outfit, as when Hearn’s tenor erupts on “Trans” into fragments of the kind of blisteringly emotional Ayleresque tough-love song that is central to Kopinski’s work. With those lighter textures Harris can demonstrate a more nimble and crisp drumming style, and throughout he reveals considerable sensitivity to colour, detail and atmosphere.
A few random highlights: the eerie ambience, the keening sax lines and the drum patterns of “Called To Rise” remind me of John Tchicai’s classic first album with Cadentia Nova Danica; the stunning “Straw Foot” is a good test of whether you’d like this album, with its stalking lower register guitar, explosions of percussion and, as washes of electronics well up, sinister scribblings by Hearn on soprano and Wimhurst on bass clarinet moving in and out of the shadowy margins; the skewed pastorality of “All You Can See”.
Above Our Heads was selected from over four hours of improvisations recorded at the Study Gallery, Poole over the weekend of 3-6 March. A second album may be possible, and would certainly be welcomed by me. Harris says: “Each performance starts with a clean sheet. It’s a bit of a cliché, but it really is like a journey that we want to take with each other and the audience. And we’re all driving the bus!” I’d recommend buying a rover ticket. The scenery is marvellous.
 
Состав
Steve Harris: drums
Cathy Stevens: six string 'violectra', viola
Geoff Hearn: tenor & soprano saxophones
Karen Wimhurst: clarinet, bass clarinet
Udo Dzierzanowski: guitar
Matthew Olczak: guitar
Adrian Newton: live & found samples
Chrome Strings:
Chas Dickie: cello
Stan Adler: cello
Rose Perry: cello
Aidan Fisher: viola
Any questions -> support@pro-jazz.com. По всем вопросам пишите -> support@pro-jazz.com
23:33
153
Нет комментариев. Ваш будет первым!