Поиск

(Free Jazz, Free Improvisation) [CD] Tanja Feichtmair, Uli Winter, Fredi Proll - Trio Now! - 2013, FLAC (tracks+.cue), lossless

(Free Jazz, Free Improvisation) [CD] Tanja Feichtmair, Uli Winter, Fredi Proll - Trio Now! - 2013, FLAC (tracks+.cue), lossless
Треклист:
Tanja Feichtmair, Uli Winter, Fredi Proll / Trio Now!
Жанр: Free Jazz, Free Improvisation
Носитель: CD
Страна-производитель диска (релиза): UK
Год издания: 2013
Издатель (лейбл): Leo Records
Номер по каталогу: CD LR 674
Аудиокодек: FLAC (*.flac)
Тип рипа: tracks+.cue
Битрейт аудио: lossless
Продолжительность: 71:35
Источник (релизер): cd
Наличие сканов в содержимом раздачи: нет
Треклист:
1 Now! 12:41
2 Walter 11:29
3 The Gift 7:06
4 Free Eggs 19:08
5 Flyblood 14:38
6 Over The Rainbow 6:35
 
Лог создания рипа
Exact Audio Copy V1.0 beta 3 from 29. August 2011
EAC extraction logfile from 11. January 2015, 10:46
Tanja Feichtmair, Uli Winter, Fredi Proll / Now!
Used drive : ASUS DRW-24F1ST a Adapter: 0 ID: 0
Read mode : Secure
Utilize accurate stream : Yes
Defeat audio cache : Yes
Make use of C2 pointers : No
Read offset correction : 6
Overread into Lead-In and Lead-Out : No
Fill up missing offset samples with silence : Yes
Delete leading and trailing silent blocks : No
Null samples used in CRC calculations : Yes
Used interface : Native Win32 interface for Win NT & 2000
Gap handling : Appended to previous track
Used output format : User Defined Encoder
Selected bitrate : 320 kBit/s
Quality : High
Add ID3 tag : No
Command line compressor : D:\Programs\Exact Audio Copy\Flac\flac.exe
Additional command line options : -V -8 -T "Genre=%genre%" -T "Artist=%artist%" -T "Title=%title%" -T "Album=%albumtitle%" -T "Date=%year%" -T "Tracknumber=%tracknr%" -T "Comment=%comment%" %source%
TOC of the extracted CD
Track | Start | Length | Start sector | End sector
---------------------------------------------------------
1 | 0:00.00 | 12:41.27 | 0 | 57101
2 | 12:41.27 | 11:28.50 | 57102 | 108751
3 | 24:10.02 | 7:05.40 | 108752 | 140666
4 | 31:15.42 | 19:07.45 | 140667 | 226736
5 | 50:23.12 | 14:37.39 | 226737 | 292550
6 | 65:00.51 | 6:34.63 | 292551 | 322163
Track 1
Filename D:\EAC\01 Now!.wav
Pre-gap length 0:00:02.00
Peak level 97.7 %
Extraction speed 5.7 X
Track quality 100.0 %
Test CRC 42D420AA
Copy CRC 42D420AA
Copy OK
Track 2
Filename D:\EAC\02 Walter.wav
Peak level 97.7 %
Extraction speed 7.0 X
Track quality 100.0 %
Test CRC 57D5CAA1
Copy CRC 57D5CAA1
Copy OK
Track 3
Filename D:\EAC\03 The Gift.wav
Peak level 97.7 %
Extraction speed 7.5 X
Track quality 100.0 %
Test CRC 78434FA1
Copy CRC 78434FA1
Copy OK
Track 4
Filename D:\EAC\04 Free Eggs.wav
Peak level 97.7 %
Extraction speed 8.8 X
Track quality 100.0 %
Test CRC 0CDFC79B
Copy CRC 0CDFC79B
Copy OK
Track 5
Filename D:\EAC\05 Flyblood.wav
Peak level 97.7 %
Extraction speed 9.8 X
Track quality 100.0 %
Test CRC 45D63B50
Copy CRC 45D63B50
Copy OK
Track 6
Filename D:\EAC\06 Over The Rainbow.wav
Peak level 97.7 %
Extraction speed 9.9 X
Track quality 100.0 %
Test CRC 83F117E7
Copy CRC 83F117E7
Copy OK
No errors occurred
End of status report
==== Log checksum 415CEA83431D188CA9F2BB1C9C365F3DB5F4188F661C35BF310931F7FA7CF5DC ====
 
Содержание индексной карты (.CUE)
REM GENRE Jazz
REM DATE 2013
REM DISCID 4D10C706
REM COMMENT "ExactAudioCopy v1.0b3"
PERFORMER "Tanja Feichtmair, Uli Winter, Fredi Proll"
TITLE "Now!"
FILE "01 Now!.wav" WAVE
TRACK 01 AUDIO
TITLE "Now!"
PERFORMER "Tanja Feichtmair, Uli Winter, Fredi Proll"
INDEX 01 00:00:00
FILE "02 Walter.wav" WAVE
TRACK 02 AUDIO
TITLE "Walter"
PERFORMER "Tanja Feichtmair, Uli Winter, Fredi Proll"
INDEX 01 00:00:00
FILE "03 The Gift.wav" WAVE
TRACK 03 AUDIO
TITLE "The Gift"
PERFORMER "Tanja Feichtmair, Uli Winter, Fredi Proll"
INDEX 01 00:00:00
FILE "04 Free Eggs.wav" WAVE
TRACK 04 AUDIO
TITLE "Free Eggs"
PERFORMER "Tanja Feichtmair, Uli Winter, Fredi Proll"
INDEX 01 00:00:00
FILE "05 Flyblood.wav" WAVE
TRACK 05 AUDIO
TITLE "Flyblood"
PERFORMER "Tanja Feichtmair, Uli Winter, Fredi Proll"
INDEX 01 00:00:00
FILE "06 Over The Rainbow.wav" WAVE
TRACK 06 AUDIO
TITLE "Over The Rainbow"
PERFORMER "Tanja Feichtmair, Uli Winter, Fredi Proll"
INDEX 01 00:00:00
Доп. информация: Recorded at Studiorecording, Ulrichsberg, May 29, 2012
The breadth and depth of their playing, variety of moods, telepathic understanding of each other is really remarkable.
 
Об альбоме (сборнике)
Ever heard of Tanja Feichtmair? She plays alto. Ever heard of Uli Winter? He plays cello. Ever heard of Fredi Pröll? He plays drums. Ever heard of Trio Now!? Well now you have. And don't forget these musicians.
I must admit: I had heard of them through their previous album "The Zipper" with Josef Novotny on keyboards and electronics, one of those albums that have been balancing on the review/no review edge, but then unfortunately didn't.
But what Trio Now! brings us here is absolutely and without hesitation worth sharing. In the best of free jazz tradition, full of energy and power, with relentless blowing and dito rhythm section, in a very European way, think of Paul Dunmall, think of Frode Gjerstad, balancing between lyricism and free improv, and basically blending both, resulting in raw intensity and energy, sometimes going utterly explosive as on the long "Walter", in which the careful and somewhat seeking built-up erupts after eight minutes as one common force.
"The Gift" is again more jazzy, with longer phrases over a fierce rhythm section. But then suddenly the atmosphere changes into the barely audible "Free Eggs", in which all three musicians create a collage of diverse notes and sounds, with silence being the main instrument, flanked and nudged by the sax cello drums yet ever so lightly, only towards the end gaining momentum and volume.
The best track is the long "Now!", the opener of the album, and a strong powerful word of welcome to a new audience, showing the trio at its best, coherent, focused, energetic and lyrical. The worst track is the last one "Over The Rainbow", which consists of the trio's infantile shouting of the well-known tune, and in my opinion plain silly. The album would have been better and more coherent without it.
 
Состав
Alto Saxophone, Vocals – Tanja Feichtmair
Cello, Vocals – Uli Winter
Drums, Vocals – Fredi Pröll
По всем вопросам пишите личное сообщение пользователю M0p94ok.
08:15
128
Нет комментариев. Ваш будет первым!