Вы используете незарегистрированную версию компонента "Вкладки"!

Поиск

(Avant-Garde Jazz) [CD] John Schroder, Burkard Kunkel, Oliver Potratz - Gulliver - 2004, FLAC (tracks+.cue), lossless

(Avant-Garde Jazz) [CD] John Schroder, Burkard Kunkel, Oliver Potratz - Gulliver - 2004, FLAC (tracks+.cue), lossless
Треклист:
John Schröder, Burkard Kunkel, Oliver Potratz / Gulliver
Жанр: Avant-Garde Jazz
Носитель: CD
Страна-производитель диска (релиза): Germany
Год издания: 2004
Издатель (лейбл): Konnex Records
Номер по каталогу: KCD 5135
Аудиокодек: FLAC (*.flac)
Тип рипа: tracks+.cue
Битрейт аудио: lossless
Продолжительность: 61:30
Источник (релизер): cd
Наличие сканов в содержимом раздачи: нет
Треклист:
1 Perle
2 Der Tag Vertreibt Die Finstere Nacht
3 Wicht
4 Traum
5 Fabrik
6 Roter Tango
7 Hähne
8 Wüstenstück
9 Enzian Und Rose
10 Wolken Ziehen
11 Gulliver
12 Der Tag Vertreibt Die Finstere Nacht / 2
 
Лог создания рипа
Exact Audio Copy V1.0 beta 3 from 29. August 2011
EAC extraction logfile from 13. January 2015, 13:19
John Schroder, Burkard Kunkel, Oliver Potratz / Gulliver
Used drive : ASUS DRW-24F1ST a Adapter: 0 ID: 0
Read mode : Secure
Utilize accurate stream : Yes
Defeat audio cache : Yes
Make use of C2 pointers : No
Read offset correction : 6
Overread into Lead-In and Lead-Out : No
Fill up missing offset samples with silence : Yes
Delete leading and trailing silent blocks : No
Null samples used in CRC calculations : Yes
Used interface : Native Win32 interface for Win NT & 2000
Gap handling : Appended to previous track
Used output format : User Defined Encoder
Selected bitrate : 320 kBit/s
Quality : High
Add ID3 tag : No
Command line compressor : D:\Programs\Exact Audio Copy\Flac\flac.exe
Additional command line options : -V -8 -T "Genre=%genre%" -T "Artist=%artist%" -T "Title=%title%" -T "Album=%albumtitle%" -T "Date=%year%" -T "Tracknumber=%tracknr%" -T "Comment=%comment%" %source%
TOC of the extracted CD
Track | Start | Length | Start sector | End sector
---------------------------------------------------------
1 | 0:00.00 | 3:40.03 | 0 | 16502
2 | 3:40.03 | 2:42.07 | 16503 | 28659
3 | 6:22.10 | 8:47.61 | 28660 | 68245
4 | 15:09.71 | 6:29.22 | 68246 | 97442
5 | 21:39.18 | 8:18.57 | 97443 | 134849
6 | 29:58.00 | 4:52.08 | 134850 | 156757
7 | 34:50.08 | 2:23.25 | 156758 | 167507
8 | 37:13.33 | 2:50.09 | 167508 | 180266
9 | 40:03.42 | 3:25.56 | 180267 | 195697
10 | 43:29.23 | 3:05.42 | 195698 | 209614
11 | 46:34.65 | 13:53.41 | 209615 | 272130
12 | 60:28.31 | 1:01.72 | 272131 | 276777
Track 1
Filename D:\EAC\01 Perle.wav
Pre-gap length 0:00:02.00
Peak level 100.0 %
Extraction speed 4.1 X
Track quality 100.0 %
Test CRC 32FE54F5
Copy CRC 32FE54F5
Copy OK
Track 2
Filename D:\EAC\02 Der Tag Vertreibt Die Finstere Nacht.wav
Pre-gap length 0:00:03.00
Peak level 99.9 %
Extraction speed 4.3 X
Track quality 100.0 %
Test CRC 2F05A376
Copy CRC 2F05A376
Copy OK
Track 3
Filename D:\EAC\03 Wicht.wav
Pre-gap length 0:00:03.00
Peak level 99.0 %
Extraction speed 5.6 X
Track quality 100.0 %
Test CRC 59FE6CC3
Copy CRC 59FE6CC3
Copy OK
Track 4
Filename D:\EAC\04 Traum.wav
Pre-gap length 0:00:03.00
Peak level 61.5 %
Extraction speed 6.1 X
Track quality 100.0 %
Test CRC 42BD7740
Copy CRC 42BD7740
Copy OK
Track 5
Filename D:\EAC\05 Fabrik.wav
Pre-gap length 0:00:03.00
Peak level 96.0 %
Extraction speed 6.9 X
Track quality 100.0 %
Test CRC 2445A4EA
Copy CRC 2445A4EA
Copy OK
Track 6
Filename D:\EAC\06 Roter Tango.wav
Pre-gap length 0:00:03.00
Peak level 82.8 %
Extraction speed 7.0 X
Track quality 100.0 %
Test CRC 62CD51A3
Copy CRC 62CD51A3
Copy OK
Track 7
Filename D:\EAC\07 Hahne.wav
Pre-gap length 0:00:03.00
Peak level 70.6 %
Extraction speed 6.4 X
Track quality 100.0 %
Test CRC F5A5307A
Copy CRC F5A5307A
Copy OK
Track 8
Filename D:\EAC\08 Wustenstuck.wav
Pre-gap length 0:00:03.00
Peak level 99.9 %
Extraction speed 6.8 X
Track quality 100.0 %
Test CRC 433043AB
Copy CRC 433043AB
Copy OK
Track 9
Filename D:\EAC\09 Enzian Und Rose.wav
Pre-gap length 0:00:03.00
Peak level 99.9 %
Extraction speed 7.2 X
Track quality 100.0 %
Test CRC 8D9374E3
Copy CRC 8D9374E3
Copy OK
Track 10
Filename D:\EAC\10 Wolken Ziehen.wav
Pre-gap length 0:00:03.00
Peak level 48.6 %
Extraction speed 6.2 X
Track quality 99.9 %
Test CRC BDFFA544
Copy CRC BDFFA544
Copy OK
Track 11
Filename D:\EAC\11 Gulliver.wav
Pre-gap length 0:00:03.00
Peak level 100.0 %
Extraction speed 8.9 X
Track quality 100.0 %
Test CRC ABF5B39A
Copy CRC ABF5B39A
Copy OK
Track 12
Filename D:\EAC\12 Der Tag Vertreibt Die Finstere Nacht , 2.wav
Pre-gap length 0:00:03.00
Peak level 99.9 %
Extraction speed 5.8 X
Track quality 100.0 %
Test CRC 74130816
Copy CRC 74130816
Copy OK
No errors occurred
End of status report
==== Log checksum 4A22F8760F19CF95515E24F2278C46457B9B438B687AED08C35B71BC118D399A ====
 
Содержание индексной карты (.CUE)
REM GENRE Jazz
REM DATE 2004
REM DISCID 820E6A0C
REM COMMENT "ExactAudioCopy v1.0b3"
PERFORMER "John Schroder, Burkard Kunkel, Oliver Potratz"
TITLE "Gulliver"
FILE "01 Perle.wav" WAVE
TRACK 01 AUDIO
TITLE "Perle"
PERFORMER "John Schroder, Burkard Kunkel, Oliver Potratz"
INDEX 01 00:00:00
TRACK 02 AUDIO
TITLE "Der Tag Vertreibt Die Finstere Nacht"
PERFORMER "John Schroder, Burkard Kunkel, Oliver Potratz"
INDEX 00 03:37:03
FILE "02 Der Tag Vertreibt Die Finstere Nacht.wav" WAVE
INDEX 01 00:00:00
TRACK 03 AUDIO
TITLE "Wicht"
PERFORMER "John Schroder, Burkard Kunkel, Oliver Potratz"
INDEX 00 02:39:07
FILE "03 Wicht.wav" WAVE
INDEX 01 00:00:00
TRACK 04 AUDIO
TITLE "Traum"
PERFORMER "John Schroder, Burkard Kunkel, Oliver Potratz"
INDEX 00 08:44:61
FILE "04 Traum.wav" WAVE
INDEX 01 00:00:00
TRACK 05 AUDIO
TITLE "Fabrik"
PERFORMER "John Schroder, Burkard Kunkel, Oliver Potratz"
INDEX 00 06:26:22
FILE "05 Fabrik.wav" WAVE
INDEX 01 00:00:00
TRACK 06 AUDIO
TITLE "Roter Tango"
PERFORMER "John Schroder, Burkard Kunkel, Oliver Potratz"
INDEX 00 08:15:57
FILE "06 Roter Tango.wav" WAVE
INDEX 01 00:00:00
TRACK 07 AUDIO
TITLE "Hahne"
PERFORMER "John Schroder, Burkard Kunkel, Oliver Potratz"
INDEX 00 04:49:08
FILE "07 Hahne.wav" WAVE
INDEX 01 00:00:00
TRACK 08 AUDIO
TITLE "Wustenstuck"
PERFORMER "John Schroder, Burkard Kunkel, Oliver Potratz"
INDEX 00 02:20:25
FILE "08 Wustenstuck.wav" WAVE
INDEX 01 00:00:00
TRACK 09 AUDIO
TITLE "Enzian Und Rose"
PERFORMER "John Schroder, Burkard Kunkel, Oliver Potratz"
INDEX 00 02:47:09
FILE "09 Enzian Und Rose.wav" WAVE
INDEX 01 00:00:00
TRACK 10 AUDIO
TITLE "Wolken Ziehen"
PERFORMER "John Schroder, Burkard Kunkel, Oliver Potratz"
INDEX 00 03:22:56
FILE "10 Wolken Ziehen.wav" WAVE
INDEX 01 00:00:00
TRACK 11 AUDIO
TITLE "Gulliver"
PERFORMER "John Schroder, Burkard Kunkel, Oliver Potratz"
INDEX 00 03:02:42
FILE "11 Gulliver.wav" WAVE
INDEX 01 00:00:00
TRACK 12 AUDIO
TITLE "Der Tag Vertreibt Die Finstere Nacht / 2"
PERFORMER "John Schroder, Burkard Kunkel, Oliver Potratz"
INDEX 00 13:50:41
FILE "12 Der Tag Vertreibt Die Finstere Nacht , 2.wav" WAVE
INDEX 01 00:00:00
Доп. информация: Trio recorded 3rd October 2003 at Das Tonstudio 24, Berlin
Duo Recorded 4th October 2003 at UDK Innenhofstudio, Berlin
 
Состав
Basset Horn, Cover – Burkard Kunkel
Composed By – Kunkel (tracks: 1, 3 to 11), Schröder (tracks: 1, 3 to 5, 7, 8, 11), Michael Weisse (tracks: 2, 12), Potratz (tracks: 1, 3 to 5, 7, 8, 11)
Contrabass – Oliver Potratz
Percussion – John Schröder, Oliver Potratz (tracks: 1, 3, 5, 6, 11)
Piano, Piano [Prepared] – John Schröder
По всем вопросам пишите личное сообщение пользователю M0p94ok.
08:15
152
Нет комментариев. Ваш будет первым!