Вы используете незарегистрированную версию компонента "Вкладки"!

Поиск

(Avant-Garde Jazz / Free Improvisation) [CD] Double Tandem (Ab Baars, Ken Vandermark, Paal Nilssen-Love) - Ox - 2012, FLAC (tracks+.cue), lossless

(Avant-Garde Jazz / Free Improvisation) [CD] Double Tandem (Ab Baars, Ken Vandermark, Paal Nilssen-Love) - Ox - 2012, FLAC (tracks+.cue), lossless
Треклист:
Ab Baars, Ken Vandermark, Paal Nilssen-Love
Double Tandem - Ox
Жанр: Avant-Garde Jazz / Free Improvisation
Носитель: CD
Страна-производитель диска (релиза): Italy
Год издания: 2012
Издатель (лейбл): dEN Records
Номер по каталогу: dEN010
Аудиокодек: FLAC (*.flac)
Тип рипа: tracks+.cue
Битрейт аудио: lossless
Продолжительность: 01:00:16
Источник (релизер): what.cd / спасибо 6060842
Наличие сканов в содержимом раздачи: нет
Треклист:
1. Toreros (32:16)
2. Omasum (24:59)
3. Akabeko (03:01)
Доп. информация:
Musicians:
Ab Baars - tenor saxophone, Bb clarinet
Ken Vandermark - tenor saxophone, baritone saxophone, Bb clarinet
Paal Nilssen-Love - drums, percussion
Recorded live at Novara Jazz Winter Session on April / 20 2012
Double Tandem - Ox freejazzblog.org
Ab Baars from Wikipedia, the free encyclopedia
Ken Vandermark Official Site
Ken Vandermark from Wikipedia, the free encyclopedia
Paal Nilssen-Love Official Site
Paal Nilssen-Love from Wikipedia, the free encyclopedia
 
... photo ...

 
Лог создания рипа
X Lossless Decoder version 20130602 (143.2)
XLD extraction logfile from 2013-06-13 23:17:39 +0400
Double Tandem / Ox
Used drive : HL-DT-ST DVDRW GX30N (revision RP09)
Media type : Pressed CD
Ripper mode : XLD Secure Ripper
Disable audio cache : OK for the drive with a cache less than 1375KiB
Make use of C2 pointers : NO
Read offset correction : 6
Max retry count : 100
Gap status : Analyzed, Appended (except HTOA)
TOC of the extracted CD
Track | Start | Length | Start sector | End sector
---------------------------------------------------------
1 | 00:00:00 | 32:16:09 | 0 | 145208
2 | 32:16:09 | 24:59:13 | 145209 | 257646
3 | 57:15:22 | 03:01:11 | 257647 | 271232
AccurateRip Summary
Disc not found in AccurateRip DB.
All Tracks
Album gain : -3.42 dB
Peak : 0.966339
Statistics
Read error : 0
Jitter error (maybe fixed) : 0
Retry sector count : 0
Damaged sector count : 0
Track 01
Filename : /Users/anch/Music/FLAC/Double Tandem - 2012 - Ox [MP3 320]/01 - Toreros.mp3
/Users/anch/Music/FLAC/Double Tandem - 2012 - Ox [MP3 V0]/01 - Toreros.mp3
/Users/anch/Music/FLAC/Double Tandem - 2012 - Ox [FLAC]/01 - Toreros.flac
Pre-gap length : 00:02:00
Track gain : -3.64 dB
Peak : 0.966339
CRC32 hash (test run) : D3F61BFD
CRC32 hash : D3F61BFD
CRC32 hash (skip zero) : 3AB5651B
AccurateRip v1 signature : AAFE6800
AccurateRip v2 signature : 590681EA
->Track not present in AccurateRip database.
Statistics
Read error : 0
Jitter error (maybe fixed) : 0
Retry sector count : 0
Damaged sector count : 0
Track 02
Filename : /Users/anch/Music/FLAC/Double Tandem - 2012 - Ox [MP3 320]/02 - Omasum.mp3
/Users/anch/Music/FLAC/Double Tandem - 2012 - Ox [MP3 V0]/02 - Omasum.mp3
/Users/anch/Music/FLAC/Double Tandem - 2012 - Ox [FLAC]/02 - Omasum.flac
Track gain : -3.20 dB
Peak : 0.966339
CRC32 hash (test run) : 493A1C9E
CRC32 hash : 493A1C9E
CRC32 hash (skip zero) : E1157CC0
AccurateRip v1 signature : 1B447ADC
AccurateRip v2 signature : 4A904E64
->Track not present in AccurateRip database.
Statistics
Read error : 0
Jitter error (maybe fixed) : 0
Retry sector count : 0
Damaged sector count : 0
Track 03
Filename : /Users/anch/Music/FLAC/Double Tandem - 2012 - Ox [MP3 320]/03 - Akabeko.mp3
/Users/anch/Music/FLAC/Double Tandem - 2012 - Ox [MP3 V0]/03 - Akabeko.mp3
/Users/anch/Music/FLAC/Double Tandem - 2012 - Ox [FLAC]/03 - Akabeko.flac
Track gain : -1.14 dB
Peak : 0.765930
CRC32 hash (test run) : 7026086E
CRC32 hash : 7026086E
CRC32 hash (skip zero) : F0F88C93
AccurateRip v1 signature : F81D19A7
AccurateRip v2 signature : 3D25FFB6
->Track not present in AccurateRip database.
Statistics
Read error : 0
Jitter error (maybe fixed) : 0
Retry sector count : 0
Damaged sector count : 0
No errors occurred
End of status report
 
Содержание индексной карты (.CUE)
TITLE "Ox"
PERFORMER "Double Tandem"
REM GENRE "Free Jazz"
REM DATE "2012"
REM DISCID 280E2003
REM REPLAYGAIN_ALBUM_GAIN -3.42 dB
REM REPLAYGAIN_ALBUM_PEAK 0.966339
FILE "01 - Toreros.flac" WAVE
TRACK 01 AUDIO
TITLE "Toreros"
PERFORMER "Double Tandem"
SONGWRITER "Ab Baars, Ken Vandermark, Paal Nilssen-LoveAb Baars, Ken Vandermark, Paal Nilssen-Love"
REM REPLAYGAIN_TRACK_GAIN -3.64 dB
REM REPLAYGAIN_TRACK_PEAK 0.966339
INDEX 01 00:00:00
FILE "02 - Omasum.flac" WAVE
TRACK 02 AUDIO
TITLE "Omasum"
PERFORMER "Double Tandem"
SONGWRITER "Ab Baars, Ken Vandermark, Paal Nilssen-LoveAb Baars, Ken Vandermark, Paal Nilssen-Love"
REM REPLAYGAIN_TRACK_GAIN -3.20 dB
REM REPLAYGAIN_TRACK_PEAK 0.966339
INDEX 01 00:00:00
FILE "03 - Akabeko.flac" WAVE
TRACK 03 AUDIO
TITLE "Akabeko"
PERFORMER "Double Tandem"
SONGWRITER "Ab Baars, Ken Vandermark, Paal Nilssen-LoveAb Baars, Ken Vandermark, Paal Nilssen-Love"
REM REPLAYGAIN_TRACK_GAIN -1.14 dB
REM REPLAYGAIN_TRACK_PEAK 0.765930
INDEX 01 00:00:00
 
auCDtect Task Manager
-----------------------
DON'T MODIFY THIS FILE
-----------------------
PERFORMER: auCDtect Task Manager, ver. 1.5.1RC6 build 1.5.1.7
Copyright (c) 2008-2010 y-soft. All rights reserved
http://y-soft.org
ANALYZER: auCDtect: CD records authenticity detector, version 0.8.2
Copyright (c) 2004 Oleg Berngardt. All rights reserved.
Copyright (c) 2004 Alexander Djourik. All rights reserved.
FILE: 03 - Akabeko.flac
Size: 14356604 Hash: CFAF0CCA36D59259D0906E4E6A150CA9 Accuracy: -m0
Conclusion: CDDA 100%
Signature: 450E02BFD0492F66EF9D107597A80EC0EC40358D
FILE: 02 - Omasum.flac
Size: 144699526 Hash: 034F65FFF0841D5431478ADAC3D3C46D Accuracy: -m0
Conclusion: CDDA 100%
Signature: A63749D352AD2C238311A5F218F2E7C40B6269F4
FILE: 01 - Toreros.flac
Size: 195690175 Hash: 99A4151A2DFE4F1C5A06955B5493D8DC Accuracy: -m0
Conclusion: CDDA 100%
Signature: 1F8D5DB0914F143D7E5CF07C4D29FDAF5299C243
... релизы с участием PAAL NILSSEN-LOVE на трекере ...
По всем вопросам пишите личное сообщение пользователю M0p94ok.
08:16
178
Нет комментариев. Ваш будет первым!