Вы используете незарегистрированную версию компонента "Вкладки"!

Поиск

(Avant-Garde Jazz / Improvised & Experimental Music) [CD] Bob Ostertag / Otomo Yoshihide (Herb Roberson, Michiyo Yagi, Chris Cutler, Sachiko Matsubara, Yumiko Tanaka, Shuichi Chino) - Twins! - 1996, FLAC (tracks+.cue), lossless

(Avant-Garde Jazz / Improvised & Experimental Music) [CD] Bob Ostertag / Otomo Yoshihide (Herb Roberson, Michiyo Yagi, Chris Cutler, Sachiko Matsubara, Yumiko Tanaka, Shuichi Chino) - Twins! - 1996, FLAC (tracks+.cue), lossless
Треклист:
Bob Ostertag / Otomo Yoshihide - Twins!
Жанр: Avant-Garde Jazz / Improvised & Experimental Music
Носитель: CD
Страна-производитель диска (релиза): Japan
Год издания: 1996
Издатель (лейбл): creativeman disc.
Номер по каталогу: CMDD-00030
Аудиокодек: FLAC (*.flac)
Тип рипа: tracks+.cue
Битрейт аудио: lossless
Продолжительность: 00:48:52
Источник (релизер): what.cd / спасибо Bruitiste
Наличие сканов в содержимом раздачи: да (cover & back)
Треклист:
1. Wacked (03:58)
2. Exercises for Currency (06:51)
3. 3 Bear Rooms (04:42)
4. The Power of Success (05:44)
5. Fruits from Viet Nam (03:55)
6. 4 Rooms of Hong Kong Stuntman (06:35)
7. You're Going Nowhere (05:28)
8. Tabbing Will Get You There Faster (05:08)
9. Otok (06:23)
Доп. информация:
Musicians:
Herb Roberson - trumpet (this trumpet solo was performed plunger muted) (1)
Otomo Yoshihide - sampler and hard-disk recorder (2, 6, 9)
Chris Cutler - gongs, tubular bell, kit drums, Tibetan finger cymbals, clay drum, woodblock, tambourine and radio (3)
Bob Ostertag - sampler (4, 7, 8)
Michiyo Yagi - koto (5)
Sampled guests:
Sachiko Matsubara - voice (2), sampling materials (6)
Yumiko Tanaka - shamisen and vocal (6)
Shuichi Chino - piano (6)
Otomo Yoshihide japanimprov.com
Otomo Yoshihide from Wikipedia, the free encyclopedia
Bob Ostertag Official Site
Bob Ostertag from Wikipedia, the free encyclopedia
 
... photo ...


 
... back ...
 
Лог создания рипа
Exact Audio Copy V1.0 beta 3 from 29. August 2011
EAC extraction logfile from 29. July 2013, 8:59
Bob Ostertag/Otomo Yoshihide / Twins!
Used drive : LITE-ON DVD SOHD-16P9S Adapter: 0 ID: 0
Read mode : Secure
Utilize accurate stream : Yes
Defeat audio cache : Yes
Make use of C2 pointers : No
Read offset correction : 6
Overread into Lead-In and Lead-Out : No
Fill up missing offset samples with silence : Yes
Delete leading and trailing silent blocks : No
Null samples used in CRC calculations : Yes
Used interface : Native Win32 interface for Win NT & 2000
Gap handling : Appended to previous track
Used output format : User Defined Encoder
Selected bitrate : 1024 kBit/s
Quality : High
Add ID3 tag : No
Command line compressor : C:\EAC\Exact Audio Copy\FLAC\flac.exe
Additional command line options : -8 -V -T "ARTIST=%artist%" -T "TITLE=%title%" -T "ALBUM=%albumtitle%" -T "DATE=%year%" -T "TRACKNUMBER=%tracknr%" -T "GENRE=%genre%" -T "PERFORMER=%albuminterpret%" -T "COMPOSER=%composer%" %haslyrics%--tag-from-file=LYRICS="%lyricsfile%"%haslyrics% -T "ALBUMARTIST=%albumartist%" -T "DISCNUMBER=%cdnumber%" -T "TOTALDISCS=%totalcds%" -T "TOTALTRACKS=%numtracks%" -T "COMMENT=%comment%" %source% -o %dest%
TOC of the extracted CD
Track | Start | Length | Start sector | End sector
---------------------------------------------------------
1 | 0:00.00 | 4:01.07 | 0 | 18081
2 | 4:01.07 | 6:56.55 | 18082 | 49336
3 | 10:57.62 | 4:46.58 | 49337 | 70844
4 | 15:44.45 | 5:49.30 | 70845 | 97049
5 | 21:34.00 | 4:00.57 | 97050 | 115106
6 | 25:34.57 | 6:41.60 | 115107 | 145241
7 | 32:16.42 | 5:32.55 | 145242 | 170196
8 | 37:49.22 | 5:14.63 | 170197 | 193809
9 | 43:04.10 | 6:23.57 | 193810 | 222591
Track 1
Filename C:\EAC-rips\Otomo Yoshihide & Bob Ostertag - Twins [1996]\01 - Herb Robertson - Wacked.wav
Pre-gap length 0:00:02.00
Peak level 56.4 %
Extraction speed 3.6 X
Track quality 100.0 %
Test CRC A452DDA4
Copy CRC A452DDA4
Track not present in AccurateRip database
Copy OK
Track 2
Filename C:\EAC-rips\Otomo Yoshihide & Bob Ostertag - Twins [1996]\02 - Otomo Yoshihide - Exercises for Currency.wav
Pre-gap length 0:00:02.76
Peak level 56.4 %
Extraction speed 4.4 X
Track quality 100.0 %
Test CRC FF9358FB
Copy CRC FF9358FB
Track not present in AccurateRip database
Copy OK
Track 3
Filename C:\EAC-rips\Otomo Yoshihide & Bob Ostertag - Twins [1996]\03 - Chris Cutler - 3 Bear Rooms (Dust).wav
Pre-gap length 0:00:05.26
Peak level 56.3 %
Extraction speed 4.7 X
Track quality 100.0 %
Test CRC 44DC3639
Copy CRC 44DC3639
Track not present in AccurateRip database
Copy OK
Track 4
Filename C:\EAC-rips\Otomo Yoshihide & Bob Ostertag - Twins [1996]\04 - Bob Ostertag - The Power of Success.wav
Pre-gap length 0:00:03.37
Peak level 99.9 %
Extraction speed 5.2 X
Track quality 100.0 %
Test CRC 91AC8C38
Copy CRC 91AC8C38
Track not present in AccurateRip database
Copy OK
Track 5
Filename C:\EAC-rips\Otomo Yoshihide & Bob Ostertag - Twins [1996]\05 - Yagi Michiyo - Fruits from Viet Nam.wav
Pre-gap length 0:00:04.30
Peak level 86.8 %
Extraction speed 5.3 X
Track quality 100.0 %
Test CRC D2409470
Copy CRC D2409470
Track not present in AccurateRip database
Copy OK
Track 6
Filename C:\EAC-rips\Otomo Yoshihide & Bob Ostertag - Twins [1996]\06 - Otomo Yoshihide - 4 Rooms of Hong Kong Stuntman.wav
Pre-gap length 0:00:04.36
Peak level 96.5 %
Extraction speed 6.0 X
Track quality 100.0 %
Test CRC F81F20DC
Copy CRC F81F20DC
Track not present in AccurateRip database
Copy OK
Track 7
Filename C:\EAC-rips\Otomo Yoshihide & Bob Ostertag - Twins [1996]\07 - Bob Ostertag - You're Going Nowhere.wav
Pre-gap length 0:00:05.73
Peak level 75.2 %
Extraction speed 6.2 X
Track quality 100.0 %
Test CRC EA7C1DF6
Copy CRC EA7C1DF6
Track not present in AccurateRip database
Copy OK
Track 8
Filename C:\EAC-rips\Otomo Yoshihide & Bob Ostertag - Twins [1996]\08 - Bob Ostertag - Tabbing Will Get You There Faster.wav
Pre-gap length 0:00:03.82
Peak level 75.5 %
Extraction speed 6.4 X
Track quality 100.0 %
Test CRC 0791512B
Copy CRC 0791512B
Track not present in AccurateRip database
Copy OK
Track 9
Filename C:\EAC-rips\Otomo Yoshihide & Bob Ostertag - Twins [1996]\09 - Otomo Yoshihide - Otok.wav
Pre-gap length 0:00:06.13
Peak level 18.0 %
Extraction speed 6.9 X
Track quality 100.0 %
Test CRC B650E340
Copy CRC B650E340
Track not present in AccurateRip database
Copy OK
None of the tracks are present in the AccurateRip database
No errors occurred
End of status report
---- CUETools DB Plugin V2.1.3
[CTDB TOCID: O9l6VG6am4XLuAC7fgIvJoJoFEM-] disk not present in database, Submit result: O9l6VG6am4XLuAC7fgIvJoJoFEM- has been uploaded
==== Log checksum B711D6DB139CCBC308CC7E9FB1F26702ED3C33FFD8B1E218DC097C1C8686A503 ====
 
Содержание индексной карты (.CUE)
REM GENRE Avant-Garde
REM DATE 1996
REM DISCID 890B9709
REM COMMENT "ExactAudioCopy v1.0b3"
CATALOG 0000000000000
PERFORMER "Bob Ostertag/Otomo Yoshihide"
TITLE "Twins!"
FILE "01 - Herb Robertson - Wacked.wav" WAVE
TRACK 01 AUDIO
TITLE "Wacked"
PERFORMER "Herb Robertson"
ISRC 000000000000
INDEX 01 00:00:00
TRACK 02 AUDIO
TITLE "Exercises for Currency"
PERFORMER "Otomo Yoshihide"
ISRC 000000000000
INDEX 00 03:58:25
FILE "02 - Otomo Yoshihide - Exercises for Currency.wav" WAVE
INDEX 01 00:00:00
TRACK 03 AUDIO
TITLE "3 Bear Rooms (Dust)"
PERFORMER "Chris Cutler"
ISRC 000000000000
INDEX 00 06:51:35
FILE "03 - Chris Cutler - 3 Bear Rooms (Dust).wav" WAVE
INDEX 01 00:00:00
TRACK 04 AUDIO
TITLE "The Power of Success"
PERFORMER "Bob Ostertag"
ISRC 000000000000
INDEX 00 04:43:30
FILE "04 - Bob Ostertag - The Power of Success.wav" WAVE
INDEX 01 00:00:00
TRACK 05 AUDIO
TITLE "Fruits from Viet Nam"
PERFORMER "Yagi Michiyo"
ISRC 000000000000
INDEX 00 05:45:07
FILE "05 - Yagi Michiyo - Fruits from Viet Nam.wav" WAVE
INDEX 01 00:00:00
TRACK 06 AUDIO
TITLE "4 Rooms of Hong Kong Stuntman"
PERFORMER "Otomo Yoshihide"
ISRC 000000000000
INDEX 00 03:56:30
FILE "06 - Otomo Yoshihide - 4 Rooms of Hong Kong Stuntman.wav" WAVE
INDEX 01 00:00:00
TRACK 07 AUDIO
TITLE "You're Going Nowhere"
PERFORMER "Bob Ostertag"
ISRC 000000000000
INDEX 00 06:36:05
FILE "07 - Bob Ostertag - You're Going Nowhere.wav" WAVE
INDEX 01 00:00:00
TRACK 08 AUDIO
TITLE "Tabbing Will Get You There Faster"
PERFORMER "Bob Ostertag"
ISRC 000000000000
INDEX 00 05:28:68
FILE "08 - Bob Ostertag - Tabbing Will Get You There Faster.wav" WAVE
INDEX 01 00:00:00
TRACK 09 AUDIO
TITLE "Otok"
PERFORMER "Otomo Yoshihide"
ISRC 000000000000
INDEX 00 05:08:53
FILE "09 - Otomo Yoshihide - Otok.wav" WAVE
INDEX 01 00:00:00
 
auCDtect Task Manager
-----------------------
DON'T MODIFY THIS FILE
-----------------------
PERFORMER: auCDtect Task Manager, ver. 1.5.1RC6 build 1.5.1.7
Copyright (c) 2008-2010 y-soft. All rights reserved
http://y-soft.org
ANALYZER: auCDtect: CD records authenticity detector, version 0.8.2
Copyright (c) 2004 Oleg Berngardt. All rights reserved.
Copyright (c) 2004 Alexander Djourik. All rights reserved.
FILE: 09 - Otomo Yoshihide - Otok.flac
Size: 19858444 Hash: 2BD7C5CBAAF3423590816E24A517110B Accuracy: -m0
Conclusion: CDDA 100%
Signature: 6C5E81F120B09C5DE9E7E483A9C4FA67FC9D0CBA
FILE: 08 - Bob Ostertag - Tabbing Will Get You There Faster.flac
Size: 27091651 Hash: 6CA89B05ECAC5E67AAEC9B5A290074A9 Accuracy: -m0
Conclusion: CDDA 99%
Signature: 7A102E4BBDD1F09CCA5A38314D61E8CBFD994E95
FILE: 07 - Bob Ostertag - You're Going Nowhere.flac
Size: 20303821 Hash: D338E31BD48E7F630AA964E2E7F0F331 Accuracy: -m0
Conclusion: CDDA 100%
Signature: A28AA07A5C0028A9953B235E420B3C4A79FCC41D
FILE: 06 - Otomo Yoshihide - 4 Rooms of Hong Kong Stuntman.flac
Size: 35571536 Hash: C27608404438E93E5365AE9847685835 Accuracy: -m0
Conclusion: CDDA 100%
Signature: 2B7CEB0738B773AF7764C8B34EC84A1F4C6B7949
FILE: 05 - Yagi Michiyo - Fruits from Viet Nam.flac
Size: 14149484 Hash: BBB434EC84A8382A59CF1A71C765694A Accuracy: -m0
Conclusion: CDDA 99%
Signature: 06D4C19D7FDAA59E9364162AFA7809BF08230103
FILE: 04 - Bob Ostertag - The Power of Success.flac
Size: 37728902 Hash: 4F60BB3F67EF4DFA6D81090DF61AE6BE Accuracy: -m0
Conclusion: CDDA 100%
Signature: C32ADC85AA758D969C34AC652931027E2773DBB0
FILE: 03 - Chris Cutler - 3 Bear Rooms (Dust).flac
Size: 22152724 Hash: C22B8DB082E24EE443329B11A644900B Accuracy: -m0
Conclusion: CDDA 99%
Signature: B0F605785ED94F51BF541B85FA328A19017717A5
FILE: 02 - Otomo Yoshihide - Exercises for Currency.flac
Size: 32965429 Hash: 2B4A75BFA1A8663E799855692AD15979 Accuracy: -m0
Conclusion: CDDA 100%
Signature: 6EBDB48CD8CD42B1169C1FE4E8F56506C5F6973E
FILE: 01 - Herb Robertson - Wacked.flac
Size: 15214580 Hash: 24A81B9DDBD1B6DD15441297E5350877 Accuracy: -m0
Conclusion: CDDA 100%
Signature: DD8853CB85E7C8394798C716D4172D818839766D
По всем вопросам пишите личное сообщение пользователю M0p94ok.
08:17
181
Нет комментариев. Ваш будет первым!