Вы используете незарегистрированную версию компонента "Вкладки"!

Поиск

(Free Jazz) [CD] Kalaparush Maurice McIntyre and the Light (Ravish Momin, Jesse Dulman) - Morning Song - 2004, FLAC (tracks+.cue), lossless

(Free Jazz) [CD] Kalaparush Maurice McIntyre and the Light (Ravish Momin, Jesse Dulman) - Morning Song - 2004, FLAC (tracks+.cue), lossless
Треклист:
Kalaparush and the Light / Morning Song
Жанр: Free Jazz
Носитель: CD
Страна-производитель диска (релиза): US
Год издания: 2004
Издатель (лейбл): Delmark Records
Номер по каталогу: DG-553
Аудиокодек: FLAC (*.flac)
Тип рипа: tracks+.cue
Битрейт аудио: lossless
Продолжительность: 63:01
Источник (релизер): cd
Наличие сканов в содержимом раздачи: нет
Треклист:
1 Here Comes The Light 7:18
2 Let Us All Relax 3:59
3 In My Morning Song 3:22
4 Noon 3:22
5 Place 3:46
6 Against All Odds 5:35
7 Mobo 5:34
8 I Don' Thave An Answer Unless It's God 4:42
9 Morning 12:55
10 Symphony No. 1 6:09
11 Evening 6:07
 
Лог создания рипа
Exact Audio Copy V1.0 beta 3 from 29. August 2011
EAC extraction logfile from 15. January 2015, 18:13
Kalaparush and the Light / Morning Song
Used drive : ASUS DRW-24F1ST a Adapter: 0 ID: 0
Read mode : Secure
Utilize accurate stream : Yes
Defeat audio cache : Yes
Make use of C2 pointers : No
Read offset correction : 6
Overread into Lead-In and Lead-Out : No
Fill up missing offset samples with silence : Yes
Delete leading and trailing silent blocks : No
Null samples used in CRC calculations : Yes
Used interface : Native Win32 interface for Win NT & 2000
Gap handling : Appended to previous track
Used output format : User Defined Encoder
Selected bitrate : 320 kBit/s
Quality : High
Add ID3 tag : No
Command line compressor : D:\Programs\Exact Audio Copy\Flac\flac.exe
Additional command line options : -V -8 -T "Genre=%genre%" -T "Artist=%artist%" -T "Title=%title%" -T "Album=%albumtitle%" -T "Date=%year%" -T "Tracknumber=%tracknr%" -T "Comment=%comment%" %source%
TOC of the extracted CD
Track | Start | Length | Start sector | End sector
---------------------------------------------------------
1 | 0:00.00 | 7:19.61 | 0 | 32985
2 | 7:19.61 | 4:00.68 | 32986 | 51053
3 | 11:20.54 | 3:23.46 | 51054 | 66324
4 | 14:44.25 | 3:23.21 | 66325 | 81570
5 | 18:07.46 | 3:46.66 | 81571 | 98586
6 | 21:54.37 | 5:36.63 | 98587 | 123849
7 | 27:31.25 | 5:35.14 | 123850 | 148988
8 | 33:06.39 | 4:42.64 | 148989 | 170202
9 | 37:49.28 | 12:55.00 | 170203 | 228327
10 | 50:44.28 | 6:10.04 | 228328 | 256081
11 | 56:54.32 | 6:07.42 | 256082 | 283648
Track 1
Filename D:\EAC\01 Here Comes The Light.wav
Pre-gap length 0:00:02.00
Peak level 97.4 %
Extraction speed 4.8 X
Track quality 100.0 %
Test CRC 6352C343
Copy CRC 6352C343
Copy OK
Track 2
Filename D:\EAC\02 Let Us All Relax.wav
Pre-gap length 0:00:00.65
Peak level 89.0 %
Extraction speed 5.1 X
Track quality 100.0 %
Test CRC 1EB152C6
Copy CRC 1EB152C6
Copy OK
Track 3
Filename D:\EAC\03 In My Morning Song.wav
Pre-gap length 0:00:01.20
Peak level 81.4 %
Extraction speed 5.3 X
Track quality 100.0 %
Test CRC 0A5A82D8
Copy CRC 0A5A82D8
Copy OK
Track 4
Filename D:\EAC\04 Noon.wav
Pre-gap length 0:00:00.69
Peak level 89.3 %
Extraction speed 5.6 X
Track quality 100.0 %
Test CRC A582338B
Copy CRC A582338B
Copy OK
Track 5
Filename D:\EAC\05 Place.wav
Pre-gap length 0:00:01.09
Peak level 96.7 %
Extraction speed 6.0 X
Track quality 100.0 %
Test CRC 355807C8
Copy CRC 355807C8
Copy OK
Track 6
Filename D:\EAC\06 Against All Odds.wav
Pre-gap length 0:00:00.66
Peak level 89.6 %
Extraction speed 6.7 X
Track quality 100.0 %
Test CRC 2E417C3E
Copy CRC 2E417C3E
Copy OK
Track 7
Filename D:\EAC\07 Mobo.wav
Pre-gap length 0:00:01.04
Peak level 95.3 %
Extraction speed 7.1 X
Track quality 100.0 %
Test CRC 89153E2D
Copy CRC 89153E2D
Copy OK
Track 8
Filename D:\EAC\08 I Don't Have An Answer, Unless It's God.wav
Pre-gap length 0:00:01.02
Peak level 85.3 %
Extraction speed 6.5 X
Track quality 99.9 %
Test CRC DA774BA0
Copy CRC DA774BA0
Copy OK
Track 9
Filename D:\EAC\09 Morning.wav
Pre-gap length 0:00:00.35
Peak level 90.8 %
Extraction speed 8.4 X
Track quality 100.0 %
Test CRC BAFE75C9
Copy CRC BAFE75C9
Copy OK
Track 10
Filename D:\EAC\10 Symphony No. 1.wav
Peak level 94.5 %
Extraction speed 8.6 X
Track quality 100.0 %
Test CRC 089FCC25
Copy CRC 089FCC25
Copy OK
Track 11
Filename D:\EAC\11 Evening.wav
Pre-gap length 0:00:00.51
Peak level 99.1 %
Extraction speed 8.8 X
Track quality 100.0 %
Test CRC E262E853
Copy CRC E262E853
Copy OK
No errors occurred
End of status report
==== Log checksum 0A50B7F397EE4CA4CD881D9EDE8A3AF662A2F46E7284389CB366D2A442E61DB4 ====
 
Содержание индексной карты (.CUE)
REM GENRE "Free Jazz"
REM DATE 2004
REM DISCID 9E0EC50B
REM COMMENT "ExactAudioCopy v1.0b3"
PERFORMER "Kalaparush and the Light"
TITLE "Morning Song"
FILE "01 Here Comes The Light.wav" WAVE
TRACK 01 AUDIO
TITLE "Here Comes The Light"
PERFORMER "Kalaparush and the Light"
INDEX 01 00:00:00
TRACK 02 AUDIO
TITLE "Let Us All Relax"
PERFORMER "Kalaparush and the Light"
INDEX 00 07:18:71
FILE "02 Let Us All Relax.wav" WAVE
INDEX 01 00:00:00
TRACK 03 AUDIO
TITLE "In My Morning Song"
PERFORMER "Kalaparush and the Light"
INDEX 00 03:59:48
FILE "03 In My Morning Song.wav" WAVE
INDEX 01 00:00:00
TRACK 04 AUDIO
TITLE "Noon"
PERFORMER "Kalaparush and the Light"
INDEX 00 03:22:52
FILE "04 Noon.wav" WAVE
INDEX 01 00:00:00
TRACK 05 AUDIO
TITLE "Place"
PERFORMER "Kalaparush and the Light"
INDEX 00 03:22:12
FILE "05 Place.wav" WAVE
INDEX 01 00:00:00
TRACK 06 AUDIO
TITLE "Against All Odds"
PERFORMER "Kalaparush and the Light"
INDEX 00 03:46:00
FILE "06 Against All Odds.wav" WAVE
INDEX 01 00:00:00
TRACK 07 AUDIO
TITLE "Mobo"
PERFORMER "Kalaparush and the Light"
INDEX 00 05:35:59
FILE "07 Mobo.wav" WAVE
INDEX 01 00:00:00
TRACK 08 AUDIO
TITLE "I Don't Have An Answer, Unless It's God"
PERFORMER "Kalaparush and the Light"
INDEX 00 05:34:12
FILE "08 I Don't Have An Answer, Unless It's God.wav" WAVE
INDEX 01 00:00:00
TRACK 09 AUDIO
TITLE "Morning"
PERFORMER "Kalaparush and the Light"
INDEX 00 04:42:29
FILE "09 Morning.wav" WAVE
INDEX 01 00:00:00
FILE "10 Symphony No. 1.wav" WAVE
TRACK 10 AUDIO
TITLE "Symphony No. 1"
PERFORMER "Kalaparush and the Light"
INDEX 01 00:00:00
TRACK 11 AUDIO
TITLE "Evening"
PERFORMER "Kalaparush and the Light"
INDEX 00 06:09:28
FILE "11 Evening.wav" WAVE
INDEX 01 00:00:00
Доп. информация: Recorded live at the "Hungry Brain" and at Riverside Studios, Chicago
 
Состав
Drums – Ravish Momin
Tenor Saxophone, Written-By – Kalaparush Maurice McIntyre
Tuba – Jesse Dulman
По всем вопросам пишите личное сообщение пользователю M0p94ok.
08:17
166
Нет комментариев. Ваш будет первым!