Поиск

(Free Jazz, Free Improvisation ) [cd] Sten Sandell, Paal Nilssen-Love - Jacana 2014, FLAC (tracks+.cue), lossless

(Free Jazz, Free Improvisation ) [cd] Sten Sandell, Paal Nilssen-Love - Jacana 2014, FLAC (tracks+.cue), lossless
Треклист:


Sten Sandell, Paal Nilssen-Love - Jacana 2014

Жанр: Free Jazz, Free Improvisation
Год выпуска: 2014
Издатель (лейбл):Rune Grammofon/RCD 2159
Формат: FLAC (tracks+.cue)
Битрейт аудио: lossless
Продолжительность 44`30
Источник: what.cd, 6060842

tracks
1 Curvature 23:10
2 Kauri 17:00
3 Jacana 4:20


 
.log
X Lossless Decoder version 20140504 (147.0)
XLD extraction logfile from 2014-08-30 11:13:25 +0400
Sten Sandell, Paal Nilssen-Love / Jacana
Used drive : HL-DT-ST DVDRW GX30N (revision RP09)
Media type : Pressed CD
Ripper mode : XLD Secure Ripper
Disable audio cache : OK for the drive with a cache less than 1375KiB
Make use of C2 pointers : NO
Read offset correction : 6
Max retry count : 100
Gap status : Analyzed, Appended (except HTOA)
TOC of the extracted CD
Track | Start | Length | Start sector | End sector
---------------------------------------------------------
1 | 00:00:00 | 23:10:00 | 0 | 104249
2 | 23:10:00 | 17:00:00 | 104250 | 180749
3 | 40:10:00 | 04:20:00 | 180750 | 200249
AccurateRip Summary
Disc not found in AccurateRip DB.
All Tracks
Album gain : -4.30 dB
Peak : 0.978180
Statistics
Read error : 0
Jitter error (maybe fixed) : 0
Retry sector count : 0
Damaged sector count : 0
Track 01
Filename : /Users/Shared/Grabbed/Sten Sandell, Paal Nilssen-Love - 2014 - Jacana [MP3 320]/01 - Curvature.mp3
/Users/Shared/Grabbed/Sten Sandell, Paal Nilssen-Love - 2014 - Jacana [MP3 V0]/01 - Curvature.mp3
/Users/Shared/Grabbed/Sten Sandell, Paal Nilssen-Love - 2014 - Jacana [FLAC]/01 - Curvature.flac
Pre-gap length : 00:02:00
Track gain : -4.71 dB
Peak : 0.965515
CRC32 hash (test run) : ADEB4959
CRC32 hash : ADEB4959
CRC32 hash (skip zero) : 96E5387B
AccurateRip v1 signature : 44D63720
AccurateRip v2 signature : 69F49DB7
->Track not present in AccurateRip database.
Statistics
Read error : 0
Jitter error (maybe fixed) : 0
Retry sector count : 0
Damaged sector count : 0
Track 02
Filename : /Users/Shared/Grabbed/Sten Sandell, Paal Nilssen-Love - 2014 - Jacana [MP3 320]/02 - Kauri.mp3
/Users/Shared/Grabbed/Sten Sandell, Paal Nilssen-Love - 2014 - Jacana [MP3 V0]/02 - Kauri.mp3
/Users/Shared/Grabbed/Sten Sandell, Paal Nilssen-Love - 2014 - Jacana [FLAC]/02 - Kauri.flac
Track gain : -3.42 dB
Peak : 0.978180
CRC32 hash (test run) : 1349B423
CRC32 hash : 1349B423
CRC32 hash (skip zero) : 1CF809EA
AccurateRip v1 signature : 556D2657
AccurateRip v2 signature : E4CC396B
->Track not present in AccurateRip database.
Statistics
Read error : 0
Jitter error (maybe fixed) : 0
Retry sector count : 0
Damaged sector count : 0
Track 03
Filename : /Users/Shared/Grabbed/Sten Sandell, Paal Nilssen-Love - 2014 - Jacana [MP3 320]/03 - Jacana.mp3
/Users/Shared/Grabbed/Sten Sandell, Paal Nilssen-Love - 2014 - Jacana [MP3 V0]/03 - Jacana.mp3
/Users/Shared/Grabbed/Sten Sandell, Paal Nilssen-Love - 2014 - Jacana [FLAC]/03 - Jacana.flac
Track gain : -2.27 dB
Peak : 0.932465
CRC32 hash (test run) : 0FB7E637
CRC32 hash : 0FB7E637
CRC32 hash (skip zero) : FA39E3FD
AccurateRip v1 signature : 13387DAD
AccurateRip v2 signature : 94F42DA7
->Track not present in AccurateRip database.
Statistics
Read error : 0
Jitter error (maybe fixed) : 0
Retry sector count : 0
Damaged sector count : 0
No errors occurred
End of status report
-----BEGIN XLD SIGNATURE-----
nLxe2U0qMTtS.pw4SH_0N.ZDlTGAwjcFfP676rFpQ5EdWqCRE5.UjXvjbIk3frod7uLztSKGtD6G28FdW3OnTMGvVspnmitAx3hJvG4
-----END XLD SIGNATURE-----
 
.cue
TITLE "Jacana"
PERFORMER "Sten Sandell, Paal Nilssen-Love"
CATALOG 7033662021598
REM GENRE "Free Jazz"
REM DATE "2014"
REM DISCID 1A0A6E03
REM REPLAYGAIN_ALBUM_GAIN -4.30 dB
REM REPLAYGAIN_ALBUM_PEAK 0.978180
FILE "01 - Curvature.flac" WAVE
TRACK 01 AUDIO
TITLE "Curvature"
PERFORMER "Sten Sandell, Paal Nilssen-Love"
ISRC NOFGR1459010
REM REPLAYGAIN_TRACK_GAIN -4.71 dB
REM REPLAYGAIN_TRACK_PEAK 0.965515
INDEX 01 00:00:00
FILE "02 - Kauri.flac" WAVE
TRACK 02 AUDIO
TITLE "Kauri"
PERFORMER "Sten Sandell, Paal Nilssen-Love"
ISRC NOFGR1459020
REM REPLAYGAIN_TRACK_GAIN -3.42 dB
REM REPLAYGAIN_TRACK_PEAK 0.978180
INDEX 01 00:00:00
FILE "03 - Jacana.flac" WAVE
TRACK 03 AUDIO
TITLE "Jacana"
PERFORMER "Sten Sandell, Paal Nilssen-Love"
ISRC NOFGR1459030
REM REPLAYGAIN_TRACK_GAIN -2.27 dB
REM REPLAYGAIN_TRACK_PEAK 0.932465
INDEX 01 00:00:00

http://www.discogs.com/Sten-Sandell-Paal-Nilssen-Love-Jacana/release/5745416
другие релизы
По всем вопросам пишите личное сообщение пользователю M0p94ok.
04:25
206
Нет комментариев. Ваш будет первым!