Вы используете незарегистрированную версию компонента "Вкладки"!

Поиск

(Avant-Garde Jazz, Big Band, Modern Composition) [CD] Rob Reddy's Small Town (w/ Curtis Hasselbring, Brandon Ross, Pheeroan akLaff a.o.) - The Book Of The Storm - 2007, FLAC (tracks+.cue), lossless

Треклист:
Rob Reddy's Small Town / The Book Of The Storm
Жанр: Avant-Garde Jazz, Big Band, Modern Composition
Носитель: CD
Страна-производитель диска: US
Год издания: 2007
Издатель (лейбл): Reddy Music
Номер по каталогу: RED-002
Страна: US
Аудиокодек: FLAC (*.flac)
Тип рипа: tracks+.cue
Битрейт аудио: lossless
Продолжительность: 53:22
Источник (релизер): свой фирменный диск
Наличие сканов в содержимом раздачи:
Треклист:
The Book Of The Storm 53:22
i. Spacious Skies / Faithless Bells 22:59
ii. God Damn 12:36
iii. Fool's March 9:45
iv. Amongst The Ruins 8:01
 
Лог создания рипа
Exact Audio Copy V1.0 beta 3 from 29. August 2011
EAC extraction logfile from 12. July 2014, 14:58
Rob Reddy's Small Town / The Book Of The Storm
Used drive : PIONEER DVD-RW DVR-115D Adapter: 0 ID: 0
Read mode : Secure
Utilize accurate stream : Yes
Defeat audio cache : Yes
Make use of C2 pointers : No
Read offset correction : 48
Overread into Lead-In and Lead-Out : No
Fill up missing offset samples with silence : Yes
Delete leading and trailing silent blocks : No
Null samples used in CRC calculations : Yes
Used interface : Installed external ASPI interface
Gap handling : Appended to previous track
Used output format : User Defined Encoder
Selected bitrate : 896 kBit/s
Quality : High
Add ID3 tag : No
Command line compressor : C:\Program Files\Exact Audio Copy\FLAC\FLAC.EXE
Additional command line options : -6 -V -T "ARTIST=%artist%" -T "TITLE=%title%" -T "ALBUM=%albumtitle%" -T "DATE=%year%" -T "TRACKNUMBER=%tracknr%" -T "GENRE=%genre%" -T "COMMENT=%comment%" -T "BAND=%albuminterpret%" -T "COMPOSER=%composer%" %haslyrics%--tag-from-file=LYRICS="%lyricsfile%"%haslyrics% -T "DISCNUMBER=%cdnumber%" -T "TOTALDISCS=%totalcds%" -T "TOTALTRACKS=%numtracks%" %hascover%--picture="%coverfile%"%hascover% %source% -o %dest%
TOC of the extracted CD
Track | Start | Length | Start sector | End sector
---------------------------------------------------------
1 | 0:00.00 | 22:59.41 | 0 | 103465
2 | 22:59.41 | 12:35.47 | 103466 | 160137
3 | 35:35.13 | 9:45.34 | 160138 | 204046
4 | 45:20.47 | 8:01.22 | 204047 | 240143
Track 1
Filename D:\zzz\01 - Spacious Skies , Faithless Bells.wav
Pre-gap length 0:00:02.00
Peak level 100.0 %
Extraction speed 4.7 X
Track quality 100.0 %
Test CRC 5BC66408
Copy CRC 5BC66408
Accurately ripped (confidence 1) [C2615FD8] (AR v2)
Copy OK
Track 2
Filename D:\zzz\02 - God Damn.wav
Peak level 97.4 %
Extraction speed 4.3 X
Track quality 99.9 %
Test CRC 6FE14FAE
Copy CRC 6FE14FAE
Accurately ripped (confidence 1) [6D605FEA] (AR v2)
Copy OK
Track 3
Filename D:\zzz\03 - Fool's March.wav
Peak level 99.9 %
Extraction speed 4.4 X
Track quality 100.0 %
Test CRC C7D38FF0
Copy CRC C7D38FF0
Accurately ripped (confidence 1) [01DE2E66] (AR v2)
Copy OK
Track 4
Filename D:\zzz\04 - Amongst The Ruins.wav
Peak level 97.8 %
Extraction speed 4.4 X
Track quality 100.0 %
Test CRC 0994BA37
Copy CRC 0994BA37
Accurately ripped (confidence 1) [E9247BB7] (AR v2)
Copy OK
All tracks accurately ripped
No errors occurred
End of status report
==== Log checksum 04DEDEDB7791FDE46737FF391B9C36B1BB77E88E9E267BA0DDCC180BF6F6D447 ====
 
Содержание индексной карты (.CUE)
REM GENRE "Avant-Garde Jazz"
REM DATE 2007
REM DISCID 290C8104
REM COMMENT "ExactAudioCopy v1.0b3"
PERFORMER "Rob Reddy's Small Town"
TITLE "The Book Of The Storm"
FILE "01 - Spacious Skies , Faithless Bells.wav" WAVE
TRACK 01 AUDIO
TITLE "Spacious Skies / Faithless Bells"
PERFORMER "Rob Reddy's Small Town"
INDEX 01 00:00:00
FILE "02 - God Damn.wav" WAVE
TRACK 02 AUDIO
TITLE "God Damn"
PERFORMER "Rob Reddy's Small Town"
INDEX 01 00:00:00
FILE "03 - Fool's March.wav" WAVE
TRACK 03 AUDIO
TITLE "Fool's March"
PERFORMER "Rob Reddy's Small Town"
INDEX 01 00:00:00
FILE "04 - Amongst The Ruins.wav" WAVE
TRACK 04 AUDIO
TITLE "Amongst The Ruins"
PERFORMER "Rob Reddy's Small Town"
INDEX 01 00:00:00
 
Лог проверки качества
d:\>d:\aucdtect -d/-m0 d:\zzz\*.wav
auCDtect: CD records authenticity detector, version 0.8.2
Copyright (c) 2004 Oleg Berngardt. All rights reserved.
Copyright (c) 2004 Alexander Djourik. All rights reserved.
------------------------------------------------------------
Processing file: [01. Spacious Skies - Faithless Bells.wav]
------------------------------------------------------------
This track looks like CDDA with probability 100%
------------------------------------------------------------
Processing file: [02. God Damn.wav]
------------------------------------------------------------
This track looks like CDDA with probability 100%
------------------------------------------------------------
Processing file: [03. Fool's March.wav]
------------------------------------------------------------
This track looks like CDDA with probability 100%
------------------------------------------------------------
Processing file: [04. Amongst The Ruins.wav]
------------------------------------------------------------
This track looks like CDDA with probability 99%
------------------------------------------------------------
Final Conclusion:
------------------------------------------------------------
These tracks looks like CDDA with probability 100%
Доп. информация:
 
Album Info & AAJ Review
Music by Rob Reddy
Recorded live at the Tribeca Performing Arts Center (New York, N.Y.) on March 15th, 2007
Liner notes: Rob Reddy, June 2007 (Brooklyn, NY)
Recorded, mixed and mastered by Jon Rosenberg
Photograph by Catherine LaSota
Design by Improvised Communications
Rob Reddy puts his saxophone aside to concentrate on composition for The Book of the Storm. Reddy has already shown that he has germane ideas and brings that facet into prominence once more.
The idea for a large ensemble came to him in 2001. Reddy could not contain the ideas that went through his imagination in a single narrative, so he parlayed that into a process that finally evolved into a four-part suite. The poet Tomas Tranströmer provides the next bit of inspiration with his poem "A Winter Night, in which its subject reads "the book of the storm.
The work was commissioned by the New York State Council on the Arts and the Jerome Foundation, and was performed at the Tribeca Performing Arts Center in March 2007. The nineteen-piece band was comprised of musicians who have been involved with Reddy's music over the years.
Reddy works from the inside out. He says that he uses improvisation to support the melodic. Here the two merge, intermingle, weave their paths into and out, and bring in stunning dynamics and dynamism into the work.
Reddy lets both tributaries structure "Spacious Skies/Faithless Bells. The buildup comes from the angularity of Lisa Parrott's baritone saxophone, with the rhythm from the drums keeping a tidy beat. The French horns and saxophones sweep in to form a velvet backdrop. But Reddy does not let it all flow in well-defined terms. He finds consonance in dissonance as free lines course within the body. The electric guitar finds an arresting space, the horns jut out and shard the fabric before a calm descends. The tempo shifts constantly, the emphasis finding new direction, but the impact is constant. Reddy's use of instruments is exemplary.
He brings in the blues that lament and wrangle their way into the tortured soul of "God Damn. The opening wash of the guitar, bass and drums moves from gentle waters to a bitter testament, unyielding in the intensity propelled by the horns.
Reddy has more in his canon on man's humanity to man, and of the bigotry of religion and state. He does this with an undaunted passion. His view is most welcome, immersed as it is in the folds of this resolute suite.
 
Состав
Rob Reddy: composer and conductor
Oscar Noriega: clarinet and bass clarinet
Steve Elson: flute and soprano saxophone
Cochemea Gastelum: alto saxophone
Tim Otto: soprano and tenor saxophones
Lisa Parrott: soprano and baritone saxophones
John Carlson: trumpet
Bob Scarpulla: trumpet
Mark Taylor: french horn
Lis Rubbard: french horn
Curtis Hasselbring: trombone
Charles Burnham: violin
Sarah Bernstein: violin
Marlene Rice: viola
Mary Wooten: cello
Dom Richards: double bass
Brandon Ross: acoustic and electric guitars
Jon Margulies: electric guitar
Pheeroan akLaff: drums
Guillermo E. Brown: drums
По всем вопросам пишите личное сообщение пользователю M0p94ok.
04:25
298
Нет комментариев. Ваш будет первым!