Вы используете незарегистрированную версию компонента "Вкладки"!

Поиск

(Free Jazz, Hard Bop, Freebop) [CD] Sun Ra - Sun Song (Jazz By Sun Ra) - 1957, FLAC (tracks+.cue), lossless

(Free Jazz, Hard Bop, Freebop) [CD] Sun Ra - Sun Song (Jazz By Sun Ra) - 1957, FLAC (tracks+.cue), lossless
Треклист:
Sun Ra / Sun Song
Жанр: Free Jazz, Hard Bop, Freebop
Носитель: CD
Страна-производитель диска: US
Год издания: 1990
Издатель (лейбл): Delmark Records
Номер по каталогу: DD-411
Страна: US
Аудиокодек: FLAC (*.flac)
Тип рипа: tracks+.cue
Битрейт аудио: lossless
Продолжительность: 44:34
Источник (релизер): Demonoid
Наличие сканов в содержимом раздачи:
Треклист:
1 Brainville 4:13
2 Call For All Demons 5:15
3 Transition 3:41
4 Possession 4:57
5 Street Named Hell 3:39
6 Lullaby For Realville 4:42
7 Future 2:54
8 Swing A Little Taste 4:25
9 New Horizons 3:05
10 Fall Off The Log 3:59
11 Sun Song 3:37
 
Лог создания рипа
Exact Audio Copy V1.0 beta 3 from 29. August 2011
EAC extraction logfile from 5. September 2014, 15:45
Sun Ra / Sun Song
Used drive : HL-DT-STDVD+-RW GH82N Adapter: 0 ID: 2
Read mode : Secure
Utilize accurate stream : Yes
Defeat audio cache : Yes
Make use of C2 pointers : No
Read offset correction : 667
Overread into Lead-In and Lead-Out : No
Fill up missing offset samples with silence : Yes
Delete leading and trailing silent blocks : No
Null samples used in CRC calculations : Yes
Used interface : Native Win32 interface for Win NT & 2000
Gap handling : Appended to previous track
Used output format : User Defined Encoder
Selected bitrate : 1024 kBit/s
Quality : High
Add ID3 tag : No
Command line compressor : C:\Program Files (x86)\Exact Audio Copy\Flac\flac.exe
Additional command line options : -8 -V -T "ARTIST=%artist%" -T "TITLE=%title%" -T "ALBUM=%albumtitle%" -T "DATE=%year%" -T "TRACKNUMBER=%tracknr%" -T "GENRE=%genre%" -T "COMMENT=%comment%" -T "BAND=%albuminterpret%" -T "ALBUMARTIST=%albuminterpret%" -T "COMPOSER=%composer%" %haslyrics%--tag-from-file=LYRICS="%lyricsfile%"%haslyrics% -T "DISCNUMBER=%cdnumber%" -T "TOTALDISCS=%totalcds%" -T "TOTALTRACKS=%numtracks%" %hascover%--picture="%coverfile%"%hascover% %source% -o %dest%
TOC of the extracted CD
Track | Start | Length | Start sector | End sector
---------------------------------------------------------
1 | 0:00.00 | 4:13.72 | 0 | 19046
2 | 4:13.72 | 5:15.43 | 19047 | 42714
3 | 9:29.40 | 3:41.72 | 42715 | 59361
4 | 13:11.37 | 4:57.70 | 59362 | 81706
5 | 18:09.32 | 3:39.23 | 81707 | 98154
6 | 21:48.55 | 4:42.47 | 98155 | 119351
7 | 26:31.27 | 2:54.43 | 119352 | 132444
8 | 29:25.70 | 4:25.37 | 132445 | 152356
9 | 33:51.32 | 3:05.48 | 152357 | 166279
10 | 36:57.05 | 3:59.65 | 166280 | 184269
11 | 40:56.70 | 3:37.27 | 184270 | 200571
Track 1
Filename C:\Rips\Sun Ra - Sun Song\01 Brainville.wav
Pre-gap length 0:00:02.00
Suspicious position 0:03:39
Peak level 93.9 %
Extraction speed 0.1 X
Track quality 98.7 %
Copy CRC 8D27B298
Cannot be verified as accurate (confidence 5) [6755F1F3], AccurateRip returned [992FCE42] (AR v2)
Copy finished
Track 2
Filename C:\Rips\Sun Ra - Sun Song\02 Call For All Demons.wav
Pre-gap length 0:00:03.30
Peak level 78.8 %
Extraction speed 1.1 X
Track quality 99.8 %
Copy CRC EC2B707A
Cannot be verified as accurate (confidence 5) [3891C017], AccurateRip returned [370A8884] (AR v2)
Copy OK
Track 3
Filename C:\Rips\Sun Ra - Sun Song\03 Transition.wav
Pre-gap length 0:00:04.00
Peak level 90.2 %
Extraction speed 0.6 X
Track quality 99.4 %
Copy CRC A75A0016
Cannot be verified as accurate (confidence 5) [4950B62A], AccurateRip returned [66573C22] (AR v2)
Copy OK
Track 4
Filename C:\Rips\Sun Ra - Sun Song\04 Possession.wav
Pre-gap length 0:00:04.25
Peak level 77.6 %
Extraction speed 2.3 X
Track quality 100.0 %
Copy CRC FCA4A1A5
Cannot be verified as accurate (confidence 5) [C9042174], AccurateRip returned [7DD3AB6B] (AR v2)
Copy OK
Track 5
Filename C:\Rips\Sun Ra - Sun Song\05 Street Named Hell.wav
Pre-gap length 0:00:03.07
Peak level 87.5 %
Extraction speed 2.2 X
Track quality 100.0 %
Copy CRC 9E503DDC
Cannot be verified as accurate (confidence 5) [219E45FB], AccurateRip returned [A1565526] (AR v2)
Copy OK
Track 6
Filename C:\Rips\Sun Ra - Sun Song\06 Lullaby For Realville.wav
Pre-gap length 0:00:04.20
Peak level 97.6 %
Extraction speed 2.5 X
Track quality 100.0 %
Copy CRC 3B02268A
Cannot be verified as accurate (confidence 5) [5BA4935A], AccurateRip returned [59355660] (AR v2)
Copy OK
Track 7
Filename C:\Rips\Sun Ra - Sun Song\07 Future.wav
Pre-gap length 0:00:02.72
Peak level 85.9 %
Extraction speed 2.3 X
Track quality 100.0 %
Copy CRC 8FB4CC22
Cannot be verified as accurate (confidence 5) [B14E3D77], AccurateRip returned [A2844751] (AR v2)
Copy OK
Track 8
Filename C:\Rips\Sun Ra - Sun Song\08 Swing A Little Taste.wav
Pre-gap length 0:00:04.05
Peak level 81.3 %
Extraction speed 2.6 X
Track quality 100.0 %
Copy CRC A65A8D77
Cannot be verified as accurate (confidence 5) [A0B87F43], AccurateRip returned [10634C5F] (AR v2)
Copy OK
Track 9
Filename C:\Rips\Sun Ra - Sun Song\09 New Horizons.wav
Pre-gap length 0:00:04.13
Peak level 77.4 %
Extraction speed 2.5 X
Track quality 100.0 %
Copy CRC D0709D6C
Cannot be verified as accurate (confidence 5) [3021BFBD], AccurateRip returned [777BFCB0] (AR v2)
Copy OK
Track 10
Filename C:\Rips\Sun Ra - Sun Song\10 Fall Off The Log.wav
Pre-gap length 0:00:03.08
Peak level 85.3 %
Extraction speed 2.6 X
Track quality 100.0 %
Copy CRC 67757E9D
Cannot be verified as accurate (confidence 5) [DCEBFF11], AccurateRip returned [04CF02B5] (AR v2)
Copy OK
Track 11
Filename C:\Rips\Sun Ra - Sun Song\11 Sun Song.wav
Pre-gap length 0:00:04.50
Peak level 63.3 %
Extraction speed 2.8 X
Track quality 100.0 %
Copy CRC A8ACEB4D
Cannot be verified as accurate (confidence 5) [6A574465], AccurateRip returned [B13ACAFF] (AR v2)
Copy OK
No tracks could be verified as accurate
There were errors
End of status report
---- CUETools DB Plugin V2.1.3
[CTDB TOCID: V6q.71PGEV2cbNiy_ms1mWZX_MU-] found, Submit result: V6q.71PGEV2cbNiy_ms1mWZX_MU- has been submitted
[fb1d03a4] (13/13) Differs in 26 samples @02:52:59,03:34:48,09:35:73,09:36:32,09:37:60,09:40:28
You can use CUETools to repair this rip.
==== Log checksum F9D7069132B4A04659346DFBC0126B838F27CFE53F58FD91E25E04A8FEAF05B5 ====
 
Содержание индексной карты (.CUE)
REM DISCID 8E0A720B
REM COMMENT "ExactAudioCopy v1.0b3"
PERFORMER "Sun Ra"
TITLE "Sun Song"
FILE "01 Brainville.wav" WAVE
TRACK 01 AUDIO
TITLE "Brainville"
PERFORMER "Sun Ra"
INDEX 01 00:00:00
TRACK 02 AUDIO
TITLE "Call For All Demons"
PERFORMER "Sun Ra"
INDEX 00 04:10:42
FILE "02 Call For All Demons.wav" WAVE
INDEX 01 00:00:00
TRACK 03 AUDIO
TITLE "Transition"
PERFORMER "Sun Ra"
INDEX 00 05:11:43
FILE "03 Transition.wav" WAVE
INDEX 01 00:00:00
TRACK 04 AUDIO
TITLE "Possession"
PERFORMER "Sun Ra"
INDEX 00 03:37:47
FILE "04 Possession.wav" WAVE
INDEX 01 00:00:00
TRACK 05 AUDIO
TITLE "Street Named Hell"
PERFORMER "Sun Ra"
INDEX 00 04:54:63
FILE "05 Street Named Hell.wav" WAVE
INDEX 01 00:00:00
TRACK 06 AUDIO
TITLE "Lullaby For Realville"
PERFORMER "Sun Ra"
INDEX 00 03:35:03
FILE "06 Lullaby For Realville.wav" WAVE
INDEX 01 00:00:00
TRACK 07 AUDIO
TITLE "Future"
PERFORMER "Sun Ra"
INDEX 00 04:39:50
FILE "07 Future.wav" WAVE
INDEX 01 00:00:00
TRACK 08 AUDIO
TITLE "Swing A Little Taste"
PERFORMER "Sun Ra"
INDEX 00 02:50:38
FILE "08 Swing A Little Taste.wav" WAVE
INDEX 01 00:00:00
TRACK 09 AUDIO
TITLE "New Horizons"
PERFORMER "Sun Ra"
INDEX 00 04:21:24
FILE "09 New Horizons.wav" WAVE
INDEX 01 00:00:00
TRACK 10 AUDIO
TITLE "Fall Off The Log"
PERFORMER "Sun Ra"
INDEX 00 03:02:40
FILE "10 Fall Off The Log.wav" WAVE
INDEX 01 00:00:00
TRACK 11 AUDIO
TITLE "Sun Song"
PERFORMER "Sun Ra"
INDEX 00 03:55:15
FILE "11 Sun Song.wav" WAVE
INDEX 01 00:00:00
 
Лог проверки качества
d:\>d:\aucdtect -d/-m0 d:\zzz\*.wav
auCDtect: CD records authenticity detector, version 0.8.2
Copyright (c) 2004 Oleg Berngardt. All rights reserved.
Copyright (c) 2004 Alexander Djourik. All rights reserved.
------------------------------------------------------------
Processing file: [01. Brainville.wav]
------------------------------------------------------------
This track looks like CDDA with probability 100%
------------------------------------------------------------
Processing file: [02. Call For All Demons.wav]
------------------------------------------------------------
This track looks like CDDA with probability 99%
------------------------------------------------------------
Processing file: [03. Transition.wav]
------------------------------------------------------------
This track looks like CDDA with probability 100%
------------------------------------------------------------
Processing file: [04. Possession.wav]
------------------------------------------------------------
This track looks like CDDA with probability 100%
------------------------------------------------------------
Processing file: [05. Street Named Hell.wav]
------------------------------------------------------------
This track looks like CDDA with probability 100%
------------------------------------------------------------
Processing file: [06. Lullaby For Realville.wav]
------------------------------------------------------------
This track looks like CDDA with probability 100%
------------------------------------------------------------
Processing file: [07. Future.wav]
------------------------------------------------------------
This track looks like MPEG with probability 95%
------------------------------------------------------------
Processing file: [08. Swing A Little Taste.wav]
------------------------------------------------------------
This track looks like CDDA with probability 99%
------------------------------------------------------------
Processing file: [09. New Horizons.wav]
------------------------------------------------------------
This track looks like CDDA with probability 100%
------------------------------------------------------------
Processing file: [10. Fall Off The Log.wav]
------------------------------------------------------------
This track looks like CDDA with probability 100%
------------------------------------------------------------
Processing file: [11. Sun Song.wav]
------------------------------------------------------------
This track looks like CDDA with probability 100%
------------------------------------------------------------
Final Conclusion:
------------------------------------------------------------
These tracks looks like CDDA with probability 100%
Доп. информация:
 
AMG Review
This essential title is also available under the moniker of Sun Song (1956). Regardless of name, this long-player contains some of Sun Ra's most complex, yet accessible efforts. Ra had been an active performer since the late 1940s, recording with his various combos or "Arkestra(s)" as Ra dubbed them. Since this was the first widely distributed platter that the artist cut, it is often erroneously referred to as his debut. The tracks were documented by then-unknown Tom Wilson. If the name rings a bell, it may be because Wilson would go on to produce such rock luminaries as Frank Zappa, Simon and Garfunkel, Bob Dylan, and the Velvet Underground, among others. Ra's highly arithmetical approach to bop was initially discounted by noted jazz critic Nat Hentoff as "repetitious," with phrases "built merely on riffs with little development." In retrospect, however, it is obvious there is much more going on here. Among the musical innovations woven into the up-tempo "Brainville" and "Transition," are advanced time signatures coupled with harmonic scales based on Ra's mathematical equations. Not to be missed is the lush elegance within the delicate, if not intricate arrangements heard on "Possession," as well as the equally involved "Sun Song" -- both of which take on an air of sophistication in their deceptive simplicity. Ra's original LP jacket comments can be found within the liner notes of the Sun Song compact disc. This is noteworthy as one of the rare occasions that Sun Ra sought to explain not only his influences, but his methods of composition and modes of execution as well. As referred to above, Jazz by Sun Ra is arguably the most accessible work in the Sun Ra catalog, as well as one of the most thoroughly and repeatedly listenable.
 
Состав
Alto Saxophone – James Scales
Baritone Saxophone – Pat Patrick
Bass – Richard Evans
Drums – Robert Barry
Electric Guitar – Wilburn Green
Piano – Sun Ra
Tenor Saxophone – John Gilmore
Timpani – Jim Hearndon
Trombone – Julian Priester
Trumpet – Arthur Hoyle, David Young
По всем вопросам пишите личное сообщение пользователю M0p94ok.
04:26
309
Нет комментариев. Ваш будет первым!