Вы используете незарегистрированную версию компонента "Вкладки"!

Поиск

(Free Jazz, Free Improvisation) [CD] Sabir Mateen / Silvia Bolognesi - Holidays in Siena - 2010, FLAC (image+.cue), lossless

(Free Jazz, Free Improvisation) [CD] Sabir Mateen / Silvia Bolognesi - Holidays in Siena - 2010, FLAC (image+.cue), lossless
Треклист:
Sabir Mateen - Silvia Bolognesi / Holidays in Siena
Жанр: Free Jazz, Free Improvisation
Носитель: CD
Страна-производитель диска: Italy
Год издания: 2010
Издатель (лейбл): Rudi Records
Номер по каталогу: 1002
Аудиокодек: FLAC (*.flac)
Тип рипа: image+.cue
Битрейт аудио: lossless
Продолжительность: 57:02
Источник (релизер): CD
Наличие сканов в содержимом раздачи: нет
Треклист:
1. Glory 8.46
2. 2 with 3 1.03
3. Walts for Jack 8.57
4. Flavio's wine 5.59
5. Double S 0.56
6. It will Be heaven in 2011 12.36
7. Hugs 10.58
8. Sunset in Legoli 7.46
 
Лог создания рипа
Exact Audio Copy V1.0 beta 2 from 29. April 2011
EAC extraction logfile from 29. January 2014, 13:08
Sabir Mateen, Silvia Bolognesi / Holidays in Siena
Used drive : Optiarc DVD RW AD-7170A Adapter: 0 ID: 0
Read mode : Secure
Utilize accurate stream : Yes
Defeat audio cache : Yes
Make use of C2 pointers : No
Read offset correction : 48
Overread into Lead-In and Lead-Out : No
Fill up missing offset samples with silence : Yes
Delete leading and trailing silent blocks : No
Null samples used in CRC calculations : Yes
Used interface : Native Win32 interface for Win NT & 2000
Used output format : User Defined Encoder
Selected bitrate : 320 kBit/s
Quality : High
Add ID3 tag : No
Command line compressor : C:\Program Files\Exact Audio Copy\Flac\flac.exe
Additional command line options : -V -8 -T "Date=%year%" -T "Genre=%genre%" %source%
TOC of the extracted CD
Track | Start | Length | Start sector | End sector
---------------------------------------------------------
1 | 0:00.00 | 8:46.22 | 0 | 39471
2 | 8:46.22 | 1:03.05 | 39472 | 44201
3 | 9:49.27 | 8:57.09 | 44202 | 84485
4 | 18:46.36 | 5:59.08 | 84486 | 111418
5 | 24:45.44 | 0:56.16 | 111419 | 115634
6 | 25:41.60 | 12:36.17 | 115635 | 172351
7 | 38:18.02 | 10:58.11 | 172352 | 221712
8 | 49:16.13 | 7:46.05 | 221713 | 256667
Range status and errors
Selected range
Filename K:\ЕАС\Sabir Mateen, Silvia Bolognesi - Holidays in Siena.wav
Peak level 100.0 %
Extraction speed 5.2 X
Range quality 99.9 %
Test CRC 352B43E6
Copy CRC 352B43E6
Copy OK
No errors occurred
AccurateRip summary
Track 1 not present in database
Track 2 not present in database
Track 3 not present in database
Track 4 not present in database
Track 5 not present in database
Track 6 not present in database
Track 7 not present in database
Track 8 not present in database
None of the tracks are present in the AccurateRip database
End of status report
==== Log checksum 37392690A6149ECBE060C54680098A2C4CF0EE361647E2F1800A85684D09D9C1 ====
 
Содержание индексной карты (.CUE)
REM GENRE Jazz
REM DATE 2011
REM DISCID 6A0D5E08
REM COMMENT "ExactAudioCopy v1.0b2"
PERFORMER "Sabir Mateen, Silvia Bolognesi "
TITLE "Holidays in Siena"
FILE "Sabir Mateen, Silvia Bolognesi - Holidays in Siena.flac" WAVE
TRACK 01 AUDIO
TITLE "Glory"
PERFORMER "Sabir Mateen, Silvia Bolognesi "
ISRC 000000000000
INDEX 01 00:00:00
TRACK 02 AUDIO
TITLE "2 with 3"
PERFORMER "Sabir Mateen, Silvia Bolognesi "
ISRC 000000000000
INDEX 01 08:46:22
TRACK 03 AUDIO
TITLE "Walts for Jack"
PERFORMER "Sabir Mateen, Silvia Bolognesi "
ISRC 000000000000
INDEX 01 09:49:27
TRACK 04 AUDIO
TITLE "Flavio's wine"
PERFORMER "Sabir Mateen, Silvia Bolognesi "
ISRC 000000000000
INDEX 01 18:46:36
TRACK 05 AUDIO
TITLE "Double S"
PERFORMER "Sabir Mateen, Silvia Bolognesi "
ISRC 000000000000
INDEX 01 24:45:44
TRACK 06 AUDIO
TITLE "It will Be heaven in 2011"
PERFORMER "Sabir Mateen, Silvia Bolognesi "
ISRC 000000000000
INDEX 01 25:41:60
TRACK 07 AUDIO
TITLE "Hugs"
PERFORMER "Sabir Mateen, Silvia Bolognesi "
ISRC 000000000000
INDEX 01 38:18:02
TRACK 08 AUDIO
TITLE "Sunset in Legoli"
PERFORMER "Sabir Mateen, Silvia Bolognesi "
ISRC 000000000000
INDEX 01 49:16:13
Доп. информация: Recorded at the Teatro dei Varii (Colle Val D'Elsa - Si)
On Dec 2010
 
Состав
Sabir Mateen: alto & tenor sax, flute, piccolo, Bb clarinet
Silvia Bolognesi: doublebass
По всем вопросам пишите личное сообщение пользователю M0p94ok.
23:04
192
Нет комментариев. Ваш будет первым!