Вы используете незарегистрированную версию компонента "Вкладки"!

Поиск

(Avant-Garde, Free Improvisation, Plainisphare) [CD] Jacques Demierre - Fabrik-Songs - Improvisations sur Weill et Eisler - 1989, FLAC (tracks+.cue), lossless

(Avant-Garde, Free Improvisation, Plainisphare) [CD] Jacques Demierre - Fabrik-Songs - Improvisations sur Weill et Eisler - 1989, FLAC (tracks+.cue), lossless
Треклист:
Jacques Demierre / Fabrik-Songs - Improvisations sur Weill et Eisler
Жанр: Avant-Garde, Free Improvisation, Plainisphare
Носитель: CD
Страна-производитель диска: Switzerland
Год издания: 1989
Издатель (лейбл): Plainisphare
Номер по каталогу: PL 1267-45 CD
Аудиокодек: FLAC (*.flac)
Тип рипа: tracks+.cue
Битрейт аудио: lossless
Продолжительность: 1:02:58
Источник (релизер): я
Наличие сканов в содержимом раздачи: нет
Треклист:
1. Der Anstatt-dass-Song (Kurt Weill) 6:41
2. Der Morgenchoral des Peachum (Kurt Weill) 10:27
3. Ballade zum § 218 (Hanns Eisler) 7:09
4. Salomon-Song (Kurt Weill) 7:40
5. Solidaritätslied (Hanns Eisler) 6:00
6. Die Moritat von Mackie Messer (Kurt Weill) 8:56
7. Ruf aus der Gruft (Kurt Weill) 6:56
8. Song von Angebot und Nachfrage (Hanns Eisler) 9:09
Enregistré le 27 février 1989 à Lausanne (studio RSR-Espace 2).
Jacques Demierre – Piano
 
Лог создания рипа
Exact Audio Copy V1.0 beta 3 from 29. August 2011
EAC extraction logfile from 27. December 2013, 14:03
Jacques Demierre / Fabrik-Songs
Used drive : hp BD E DS6E2LH Adapter: 0 ID: 1
Read mode : Secure
Utilize accurate stream : Yes
Defeat audio cache : Yes
Make use of C2 pointers : No
Read offset correction : 6
Overread into Lead-In and Lead-Out : No
Fill up missing offset samples with silence : Yes
Delete leading and trailing silent blocks : No
Null samples used in CRC calculations : Yes
Used interface : Native Win32 interface for Win NT & 2000
Gap handling : Appended to previous track
Used output format : User Defined Encoder
Selected bitrate : 768 kBit/s
Quality : High
Add ID3 tag : No
Command line compressor : C:\Program Files (x86)\Exact Audio Copy\Flac\flac.exe
Additional command line options : -8 -V -T "ARTIST=%artist%" -T "TITLE=%title%" -T "ALBUM=%albumtitle%" -T "DATE=%year%" -T "TRACKNUMBER=%tracknr%" -T "GENRE=%genre%" -T "PERFORMER=%albuminterpret%" -T "COMPOSER=%composer%" %haslyrics%--tag-from-file=LYRICS="%lyricsfile%"%haslyrics% -T "ALBUMARTIST=%albumartist%" -T "DISCNUMBER=%cdnumber%" -T "TOTALDISCS=%totalcds%" -T "TOTALTRACKS=%numtracks%" -T "COMMENT=%comment%" %source% -o %dest%
TOC of the extracted CD
Track | Start | Length | Start sector | End sector
---------------------------------------------------------
1 | 0:00.33 | 6:40.52 | 33 | 30084
2 | 6:41.10 | 10:26.50 | 30085 | 77084
3 | 17:07.60 | 7:09.05 | 77085 | 109264
4 | 24:16.65 | 7:40.08 | 109265 | 143772
5 | 31:56.73 | 6:00.25 | 143773 | 170797
6 | 37:57.23 | 8:55.62 | 170798 | 210984
7 | 46:53.10 | 6:56.25 | 210985 | 242209
8 | 53:49.35 | 9:08.40 | 242210 | 283349
Track 1
Filename C:\EAC rips\01 - Der Anstatt-dass-Song.wav
Pre-gap length 0:00:02.33
Peak level 96.4 %
Extraction speed 1.2 X
Track quality 99.9 %
Test CRC 450B13AA
Copy CRC 450B13AA
Track not present in AccurateRip database
Copy OK
Track 2
Filename C:\EAC rips\02 - Der Morgenchoral des Peachum.wav
Pre-gap length 0:00:02.72
Peak level 97.9 %
Extraction speed 1.6 X
Track quality 100.0 %
Test CRC C453D5A6
Copy CRC C453D5A6
Track not present in AccurateRip database
Copy OK
Track 3
Filename C:\EAC rips\03 - Ballade zum § 218.wav
Pre-gap length 0:00:01.45
Peak level 63.6 %
Extraction speed 1.8 X
Track quality 100.0 %
Test CRC D3D6CC5D
Copy CRC D3D6CC5D
Track not present in AccurateRip database
Copy OK
Track 4
Filename C:\EAC rips\04 - Salomon-Song.wav
Pre-gap length 0:00:01.02
Peak level 60.6 %
Extraction speed 1.7 X
Track quality 99.9 %
Test CRC 3144B5C3
Copy CRC 3144B5C3
Track not present in AccurateRip database
Copy OK
Track 5
Filename C:\EAC rips\05 - Solidaritätslied.wav
Pre-gap length 0:00:02.60
Peak level 58.6 %
Extraction speed 2.0 X
Track quality 100.0 %
Test CRC 918BD55F
Copy CRC 918BD55F
Track not present in AccurateRip database
Copy OK
Track 6
Filename C:\EAC rips\06 - Die Moritat von Mackie Messer.wav
Pre-gap length 0:00:02.40
Peak level 67.8 %
Extraction speed 2.1 X
Track quality 99.9 %
Test CRC 999314E3
Copy CRC 999314E3
Track not present in AccurateRip database
Copy OK
Track 7
Filename C:\EAC rips\07 - Ruf aus der Gruft.wav
Pre-gap length 0:00:03.42
Peak level 67.3 %
Extraction speed 2.2 X
Track quality 99.9 %
Test CRC 614449E0
Copy CRC 614449E0
Track not present in AccurateRip database
Copy OK
Track 8
Filename C:\EAC rips\08 - Song von Angebot und Nachfrage.wav
Pre-gap length 0:00:02.47
Peak level 97.7 %
Extraction speed 2.5 X
Track quality 100.0 %
Test CRC 912E91A0
Copy CRC 912E91A0
Track not present in AccurateRip database
Copy OK
None of the tracks are present in the AccurateRip database
No errors occurred
End of status report
---- CUETools DB Plugin V2.1.4
[CTDB TOCID: Hy1iz0y0zk3uxHiVMpBuPPcdsv4-] disk not present in database
Submit result: Hy1iz0y0zk3uxHiVMpBuPPcdsv4- has been uploaded
==== Log checksum C814B452E2B0C8D173C2D9F479E1CFE96C4B150CB394D3544DDCCE50139B84CB ====
 
Содержание индексной карты (.CUE)
REM GENRE Jazz
REM DATE 1989
REM DISCID 670EC208
REM COMMENT "ExactAudioCopy v1.0b3"
PERFORMER "Jacques Demierre"
TITLE "Fabrik-Songs"
FILE "01 - Der Anstatt-dass-Song.wav" WAVE
TRACK 01 AUDIO
TITLE "Der Anstatt-dass-Song"
PERFORMER "Jacques Demierre"
PREGAP 00:00:33
INDEX 01 00:00:00
TRACK 02 AUDIO
TITLE "Der Morgenchoral des Peachum"
PERFORMER "Jacques Demierre"
INDEX 00 06:37:55
FILE "02 - Der Morgenchoral des Peachum.wav" WAVE
INDEX 01 00:00:00
TRACK 03 AUDIO
TITLE "Ballade zum § 218"
PERFORMER "Jacques Demierre"
INDEX 00 10:25:05
FILE "03 - Ballade zum § 218.wav" WAVE
INDEX 01 00:00:00
TRACK 04 AUDIO
TITLE "Salomon-Song"
PERFORMER "Jacques Demierre"
INDEX 00 07:08:03
FILE "04 - Salomon-Song.wav" WAVE
INDEX 01 00:00:00
TRACK 05 AUDIO
TITLE "Solidaritätslied"
PERFORMER "Jacques Demierre"
INDEX 00 07:37:23
FILE "05 - Solidaritätslied.wav" WAVE
INDEX 01 00:00:00
TRACK 06 AUDIO
TITLE "Die Moritat von Mackie Messer"
PERFORMER "Jacques Demierre"
INDEX 00 05:57:60
FILE "06 - Die Moritat von Mackie Messer.wav" WAVE
INDEX 01 00:00:00
TRACK 07 AUDIO
TITLE "Ruf aus der Gruft"
PERFORMER "Jacques Demierre"
INDEX 00 08:52:20
FILE "07 - Ruf aus der Gruft.wav" WAVE
INDEX 01 00:00:00
TRACK 08 AUDIO
TITLE "Song von Angebot und Nachfrage"
PERFORMER "Jacques Demierre"
INDEX 00 06:53:53
FILE "08 - Song von Angebot und Nachfrage.wav" WAVE
INDEX 01 00:00:00
По всем вопросам пишите личное сообщение пользователю M0p94ok.
23:03
173
Нет комментариев. Ваш будет первым!