Вы используете незарегистрированную версию компонента "Вкладки"!

Поиск

(Free Jazz) [CD] DKV Trio (Hamid Drake, Kent Kessler, Ken Vandermark) plus Mats Gustafsson, Massimo Pupillo and Paal Nilssen-Love - Schl8hof - 2013, FLAC (image+.cue), lossless

(Free Jazz) [CD] DKV Trio (Hamid Drake, Kent Kessler, Ken Vandermark) plus Mats Gustafsson, Massimo Pupillo and Paal Nilssen-Love - Schl8hof - 2013, FLAC (image+.cue), lossless
Треклист:
DKV Trio plus Mats Gustafsson, Massimo Pupillo and Paal Nilssen-Love / Schl8hof
Жанр: Free Jazz
Носитель: CD
Страна-производитель диска: Austria
Год издания: 2013
Издатель (лейбл): Trost Records
Номер по каталогу: TR125
Аудиокодек: FLAC (*.flac)
Тип рипа: image+.cue
Битрейт аудио: lossless
Продолжительность: 58:13
Источник (релизер): gssmg7
Наличие сканов в содержимом раздачи: нет
Треклист:
1. This Building Is On Fire (DKV) - 19:10
2. All In (DKV + Nilssen-Love, Pupillo, Gustafsson) - 8:27
3. All Out (DKV + Nilssen-Love, Pupillo, Gustafsson) - 30:37
 
Лог создания рипа
Exact Audio Copy V1.0 beta 2 from 29. April 2011
EAC extraction logfile from 29. January 2014, 21:15
DKV + Gustafsson, Pupillo, Nilssen-Love / Schl8Hof
Used drive : Optiarc DVD RW AD-5280S Adapter: 1 ID: 1
Read mode : Secure
Utilize accurate stream : Yes
Defeat audio cache : Yes
Make use of C2 pointers : No
Read offset correction : 48
Overread into Lead-In and Lead-Out : No
Fill up missing offset samples with silence : Yes
Delete leading and trailing silent blocks : No
Null samples used in CRC calculations : Yes
Used interface : Installed external ASPI interface
Used output format : User Defined Encoder
Selected bitrate : 128 kBit/s
Quality : High
Add ID3 tag : No
Command line compressor : C:\Program Files\FLAC\flac.exe
Additional command line options : -V -8 -T "Genre=%genre%" -T "Artist=%artist%" -T "Title=%title%" -T "Album=%albumtitle%" -T "Date=%year%" -T "Tracknumber=%tracknr%" -T "Comment=%comment%" %source%
TOC of the extracted CD
Track | Start | Length | Start sector | End sector
---------------------------------------------------------
1 | 0:00.00 | 19:09.61 | 0 | 86235
2 | 19:09.61 | 8:26.70 | 86236 | 124255
3 | 27:36.56 | 30:36.56 | 124256 | 262011
Range status and errors
Selected range
Filename C:\DKV + Gustafsson, Pupillo, Nilssen-Love (2013) - Schl8Hof\DKV + Gustafsson, Pupillo, Nilssen-Love (2013) - Schl8Hof.wav
Peak level 98.8 %
Extraction speed 7.1 X
Range quality 99.9 %
Test CRC 859EB6EA
Copy CRC 16A221FB
Copy OK
No errors occurred
AccurateRip summary
Track 1 not present in database
Track 2 not present in database
Track 3 not present in database
None of the tracks are present in the AccurateRip database
End of status report
==== Log checksum F05A29A5425CF54C5FF4AB17DEAB9B41EA673BDE2AA1A1989A9566BC3894C383 ====
 
Содержание индексной карты (.CUE)
REM GENRE Jazz
REM DATE 2013
REM DISCID 1E0DA503
REM COMMENT "ExactAudioCopy v1.0b2"
CATALOG 9120036681385
PERFORMER "DKV + Gustafsson, Pupillo, Nilssen-Love"
TITLE "Schl8Hof"
FILE "DKV + Gustafsson, Pupillo, Nilssen-Love (2013) - Schl8Hof.flac" WAVE
TRACK 01 AUDIO
TITLE "This Building Is On Fire"
PERFORMER "DKV + Gustafsson, Pupillo, Nilssen-Love"
ISRC ATD411311001
INDEX 01 00:00:00
TRACK 02 AUDIO
TITLE "All In"
PERFORMER "DKV + Gustafsson, Pupillo, Nilssen-Love"
ISRC ATD411311002
INDEX 00 19:06:52
INDEX 01 19:09:61
TRACK 03 AUDIO
TITLE "All Out"
PERFORMER "DKV + Gustafsson, Pupillo, Nilssen-Love"
ISRC ATD411311003
INDEX 00 27:34:20
INDEX 01 27:36:56
 
Доп. информация
Recorded live at Schlachthof Wels, Austria on 25th November 2011.
 
Об альбоме (сборнике)
The last review in our week of new recording featuring Paal Nilssen-Love has him on only two of the three tracks. “Schl8hof” (a pun dealing with the German number 8 - Acht – in Schlachthof, the German word for slaughterhouse) is actually a DKV album (Hamid Drake, Kent Kessler and Ken Vandermark) who were joined by Mats Gustafsson on tenor and baritone sax, Massimo Pupillo on electric bass and Nilssen-Love on drums at the 2011 Unlimited Festival in Wels, Austria (1). Quite apart from the fact that this is an interesting match in general, producing a splendid album, it’s particularly fascinating to listen to two of the best drummers of the free jazz scene playing together. DKV was one of the most prolific and versatile trios between 1996 and 2002, when they took an album break. In 2012, they released their magnum opus: “Past Present” on Not Two. DKV is one of the tightest free-improvisation units you can imagine due to the use of written material on which they improvise extensively. It’s especially Hamid Drake’s rhythmic pulse – ranging from funky elegant grooves to free wildfire – that provides the fundamentals of this group. It’s almost a shock when “This Building is on Fire”, the first track, abruptly ends and Gustafsson, Pupillo and Nilssen-Love step into the arena, as if they were burying DKV under their wall of noise. If you listen closely however, you realize that both trios complement each other excellently. Nilssen-Love shows his wild and expressive side but Drake is a much too experienced and great a drummer to drown in this torrent. He sticks to his style, and the result is a highly energetic combination that also grooves like hell. Vandermark and Gustafsson are a similar combination. On the second track, “All In”, Gustafsson structures the piece delivering brutal chords – repetitive, off-the-wall, manic – a rhythmic texture which Vandermark uses this to soar like an eagle. They dance with each other, they take out speed (when they do this it is simply great), they wrestle with each other – as well as Pupillo and Kessler. One of the album’s magical moments is their bass duet on “All Out”. The reviews on Paal Nilssen-Love’s albums with Lasse Marhaug were a lot about noise, particularly the beauty of it. This album comes very close to that. It’s available on vinyl and CD, but in this case I’d recommend the latter as you get the wonderful extra DKV track and can listen to the half hour “All Out” without having to turn the LP. ~ martin schray and colin green, december 27, 2013, freejazzblog.org
 
Состав
Kent Kessler - bass
Hamid Drake - drums
Paal Nilssen-Love - drums
Massimo Pupillo - electric bass
Mats Gustafsson - tenor saxophone, baritone saxophone
Ken Vandermark - tenor saxophone, clarinet
Any questions -> support@pro-jazz.com. По всем вопросам пишите -> support@pro-jazz.com
23:03
171
Нет комментариев. Ваш будет первым!