Вы используете незарегистрированную версию компонента "Вкладки"!

Поиск

(Avant-Garde, Free Improvisation, Splasc(H)) [CD] Pierre Favre & Tino Tracanna - Punctus - 2000, FLAC (tracks+.cue), lossless

(Avant-Garde, Free Improvisation, Splasc(H)) [CD] Pierre Favre & Tino Tracanna - Punctus - 2000, FLAC (tracks+.cue), lossless
Издатель (лейбл):
Треклист:
Pierre Favre & Tino Tracanna / Punctus
Жанр: Avant-Garde, Free Improvisation, Splasc(H) Records
Носитель: CD
Страна-производитель диска: Italy
Год издания: 2000
Издатель (лейбл): Splasc(H) Records
Номер по каталогу: CDH 817.2
Аудиокодек: FLAC (*.flac)
Тип рипа: tracks+.cue
Битрейт аудио: lossless
Продолжительность: 45:29
Источник (релизер): я
Наличие сканов в содержимом раздачи: нет
Треклист:
01. Punctus #1 (Favre / Tracanna) 1:18
02. Clusone (Tino Tracanna) 4:37
03. Line Blues Line (Tino Tracanna) 3:06
04. Meditabonda (Tino Tracanna) 2:49
05. Punctus #4 (Favre / Tracanna) 2:11
06. Punctus #7 (Favre / Tracanna) 2:42
07. Pavia (Tino Tracanna) 2:55
08. Misterioso (Thelonious Monk) 3:14
09. Dance and Counterdance (Pierre Favre) 7:26
10. Punctus #3 (Favre / Tracanna) 2:17
11. Eterninna (Tino Tracanna) 3:45
12. Punctus #5 (Favre / Tracanna) 1:40
13. Punctus #2 (Favre / Tracanna) 3:47
14. Punture (Tino Tracanna) 3:44
Recorded on June 8th, 2000 at « Suono Vivo » Studios, Bergamo, Italy.
Tino Tracanna – Soprano, Sopranino, Tenor, Baritone Saxophones
Pierre Favre – Percussions
 
Лог создания рипа
Exact Audio Copy V1.0 beta 3 from 29. August 2011
EAC extraction logfile from 23. December 2013, 12:22
Pierre Favre & Tino Tracanna / Punctus
Used drive : SlimtypeeNAU508 5 Adapter: 1 ID: 0
Read mode : Secure
Utilize accurate stream : Yes
Defeat audio cache : Yes
Make use of C2 pointers : No
Read offset correction : 6
Overread into Lead-In and Lead-Out : No
Fill up missing offset samples with silence : Yes
Delete leading and trailing silent blocks : No
Null samples used in CRC calculations : Yes
Used interface : Native Win32 interface for Win NT & 2000
Gap handling : Appended to previous track
Used output format : User Defined Encoder
Selected bitrate : 768 kBit/s
Quality : High
Add ID3 tag : No
Command line compressor : C:\Program Files (x86)\Exact Audio Copy\Flac\flac.exe
Additional command line options : -8 -V -T "ARTIST=%artist%" -T "TITLE=%title%" -T "ALBUM=%albumtitle%" -T "DATE=%year%" -T "TRACKNUMBER=%tracknr%" -T "GENRE=%genre%" -T "PERFORMER=%albuminterpret%" -T "COMPOSER=%composer%" %haslyrics%--tag-from-file=LYRICS="%lyricsfile%"%haslyrics% -T "ALBUMARTIST=%albumartist%" -T "DISCNUMBER=%cdnumber%" -T "TOTALDISCS=%totalcds%" -T "TOTALTRACKS=%numtracks%" -T "COMMENT=%comment%" %source% -o %dest%
TOC of the extracted CD
Track | Start | Length | Start sector | End sector
---------------------------------------------------------
1 | 0:00.00 | 1:17.45 | 0 | 5819
2 | 1:17.45 | 4:37.28 | 5820 | 26622
3 | 5:54.73 | 3:06.23 | 26623 | 40595
4 | 9:01.21 | 2:48.59 | 40596 | 53254
5 | 11:50.05 | 2:10.67 | 53255 | 63071
6 | 14:00.72 | 2:42.08 | 63072 | 75229
7 | 16:43.05 | 2:54.59 | 75230 | 88338
8 | 19:37.64 | 3:14.32 | 88339 | 102920
9 | 22:52.21 | 7:25.60 | 102921 | 136355
10 | 30:18.06 | 2:16.38 | 136356 | 146593
11 | 32:34.44 | 3:44.53 | 146594 | 163446
12 | 36:19.22 | 1:39.40 | 163447 | 170911
13 | 37:58.62 | 3:46.47 | 170912 | 187908
14 | 41:45.34 | 3:43.60 | 187909 | 204693
Track 1
Filename C:\EAC rips\01 - Punctus #1.wav
Pre-gap length 0:00:02.00
Peak level 100.0 %
Extraction speed 1.5 X
Track quality 100.0 %
Test CRC 5ABA50B7
Copy CRC 5ABA50B7
Track not present in AccurateRip database
Copy OK
Track 2
Filename C:\EAC rips\02 - Clusone.wav
Pre-gap length 0:00:01.60
Peak level 56.2 %
Extraction speed 2.2 X
Track quality 100.0 %
Test CRC 6CA76376
Copy CRC 6CA76376
Track not present in AccurateRip database
Copy OK
Track 3
Filename C:\EAC rips\03 - Line Blues Line.wav
Pre-gap length 0:00:00.34
Peak level 99.9 %
Extraction speed 2.3 X
Track quality 100.0 %
Test CRC 5B3D510A
Copy CRC 5B3D510A
Track not present in AccurateRip database
Copy OK
Track 4
Filename C:\EAC rips\04 - Meditabonda.wav
Pre-gap length 0:00:02.10
Peak level 61.8 %
Extraction speed 2.4 X
Track quality 100.0 %
Test CRC 76C16D57
Copy CRC 76C16D57
Track not present in AccurateRip database
Copy OK
Track 5
Filename C:\EAC rips\05 - Punctus #4.wav
Pre-gap length 0:00:02.34
Peak level 98.7 %
Extraction speed 2.4 X
Track quality 100.0 %
Test CRC A9DF3A3D
Copy CRC A9DF3A3D
Track not present in AccurateRip database
Copy OK
Track 6
Filename C:\EAC rips\06 - Punctus #7.wav
Peak level 99.9 %
Extraction speed 2.6 X
Track quality 100.0 %
Test CRC 01983E60
Copy CRC 01983E60
Track not present in AccurateRip database
Copy OK
Track 7
Filename C:\EAC rips\07 - Pavia.wav
Pre-gap length 0:00:01.68
Peak level 59.8 %
Extraction speed 2.7 X
Track quality 100.0 %
Test CRC E7AE9820
Copy CRC E7AE9820
Track not present in AccurateRip database
Copy OK
Track 8
Filename C:\EAC rips\08 - Misterioso.wav
Pre-gap length 0:00:00.13
Peak level 99.9 %
Extraction speed 2.8 X
Track quality 100.0 %
Test CRC 3D88441B
Copy CRC 3D88441B
Track not present in AccurateRip database
Copy OK
Track 9
Filename C:\EAC rips\09 - Dance and Counterdance.wav
Pre-gap length 0:00:01.27
Peak level 99.9 %
Extraction speed 3.4 X
Track quality 100.0 %
Test CRC 9589C080
Copy CRC 9589C080
Track not present in AccurateRip database
Copy OK
Track 10
Filename C:\EAC rips\10 - Punctus #3.wav
Pre-gap length 0:00:00.40
Peak level 99.9 %
Extraction speed 3.0 X
Track quality 100.0 %
Test CRC 5FA11335
Copy CRC 5FA11335
Track not present in AccurateRip database
Copy OK
Track 11
Filename C:\EAC rips\11 - Eterninna.wav
Pre-gap length 0:00:01.50
Peak level 63.6 %
Extraction speed 3.5 X
Track quality 100.0 %
Test CRC 554E79F3
Copy CRC 554E79F3
Track not present in AccurateRip database
Copy OK
Track 12
Filename C:\EAC rips\12 - Punctus #5.wav
Peak level 99.9 %
Extraction speed 3.0 X
Track quality 100.0 %
Test CRC 61F85D0B
Copy CRC 61F85D0B
Track not present in AccurateRip database
Copy OK
Track 13
Filename C:\EAC rips\13 - Punctus #2.wav
Pre-gap length 0:00:02.12
Peak level 50.1 %
Extraction speed 3.6 X
Track quality 100.0 %
Test CRC FB3ED353
Copy CRC FB3ED353
Track not present in AccurateRip database
Copy OK
Track 14
Filename C:\EAC rips\14 - Punture.wav
Pre-gap length 0:00:01.36
Peak level 99.9 %
Extraction speed 3.0 X
Track quality 99.9 %
Test CRC 62E60E65
Copy CRC 62E60E65
Track not present in AccurateRip database
Copy OK
None of the tracks are present in the AccurateRip database
No errors occurred
End of status report
---- CUETools DB Plugin V2.1.4
[CTDB TOCID: pdsEqDvPgXXjsVxAdwdnG2MltUk-] disk not present in database
Submit result: pdsEqDvPgXXjsVxAdwdnG2MltUk- has been uploaded
==== Log checksum CB3E1C61DB4F4BF9B6CEA337EA7EE91942469C8CEDC67629686B1B1D644A2CCA ====
 
Содержание индексной карты (.CUE)
REM GENRE Jazz
REM DATE 2000
REM DISCID B10AA90E
REM COMMENT "ExactAudioCopy v1.0b3"
PERFORMER "Pierre Favre & Tino Tracanna"
TITLE "Punctus"
FILE "01 - Punctus #1.wav" WAVE
TRACK 01 AUDIO
TITLE "Punctus #1"
PERFORMER "Pierre Favre & Tino Tracanna"
INDEX 01 00:00:00
TRACK 02 AUDIO
TITLE "Clusone"
PERFORMER "Pierre Favre & Tino Tracanna"
INDEX 00 01:15:60
FILE "02 - Clusone.wav" WAVE
INDEX 01 00:00:00
TRACK 03 AUDIO
TITLE "Line Blues Line"
PERFORMER "Pierre Favre & Tino Tracanna"
INDEX 00 04:36:69
FILE "03 - Line Blues Line.wav" WAVE
INDEX 01 00:00:00
TRACK 04 AUDIO
TITLE "Meditabonda"
PERFORMER "Pierre Favre & Tino Tracanna"
INDEX 00 03:04:13
FILE "04 - Meditabonda.wav" WAVE
INDEX 01 00:00:00
TRACK 05 AUDIO
TITLE "Punctus #4"
PERFORMER "Pierre Favre & Tino Tracanna"
INDEX 00 02:46:25
FILE "05 - Punctus #4.wav" WAVE
INDEX 01 00:00:00
FILE "06 - Punctus #7.wav" WAVE
TRACK 06 AUDIO
TITLE "Punctus #7"
PERFORMER "Pierre Favre & Tino Tracanna"
INDEX 01 00:00:00
TRACK 07 AUDIO
TITLE "Pavia"
PERFORMER "Pierre Favre & Tino Tracanna"
INDEX 00 02:40:15
FILE "07 - Pavia.wav" WAVE
INDEX 01 00:00:00
TRACK 08 AUDIO
TITLE "Misterioso"
PERFORMER "Pierre Favre & Tino Tracanna"
INDEX 00 02:54:46
FILE "08 - Misterioso.wav" WAVE
INDEX 01 00:00:00
TRACK 09 AUDIO
TITLE "Dance and Counterdance"
PERFORMER "Pierre Favre & Tino Tracanna"
INDEX 00 03:13:05
FILE "09 - Dance and Counterdance.wav" WAVE
INDEX 01 00:00:00
TRACK 10 AUDIO
TITLE "Punctus #3"
PERFORMER "Pierre Favre & Tino Tracanna"
INDEX 00 07:25:20
FILE "10 - Punctus #3.wav" WAVE
INDEX 01 00:00:00
TRACK 11 AUDIO
TITLE "Eterninna"
PERFORMER "Pierre Favre & Tino Tracanna"
INDEX 00 02:14:63
FILE "11 - Eterninna.wav" WAVE
INDEX 01 00:00:00
FILE "12 - Punctus #5.wav" WAVE
TRACK 12 AUDIO
TITLE "Punctus #5"
PERFORMER "Pierre Favre & Tino Tracanna"
INDEX 01 00:00:00
TRACK 13 AUDIO
TITLE "Punctus #2"
PERFORMER "Pierre Favre & Tino Tracanna"
INDEX 00 01:37:28
FILE "13 - Punctus #2.wav" WAVE
INDEX 01 00:00:00
TRACK 14 AUDIO
TITLE "Punture"
PERFORMER "Pierre Favre & Tino Tracanna"
INDEX 00 03:45:11
FILE "14 - Punture.wav" WAVE
INDEX 01 00:00:00
Any questions -> support@pro-jazz.com. По всем вопросам пишите -> support@pro-jazz.com
23:05
196
Нет комментариев. Ваш будет первым!