Вы используете незарегистрированную версию компонента "Вкладки"!

Поиск

(Avant-Garde Jazz, Free Jazz, Nine Winds) [CD] Steve Adams & Vinny Golia - Circular Logic: Music For Woodwinds - 1998, FLAC (tracks+.cue), lossless

(Avant-Garde Jazz, Free Jazz, Nine Winds) [CD] Steve Adams & Vinny Golia - Circular Logic: Music For Woodwinds - 1998, FLAC (tracks+.cue), lossless
Треклист:
Steve Adams & Vinny Golia / Circular Logic: Music For Woodwinds
Жанр: Avant-Garde Jazz, Free Jazz, Nine Winds
Носитель: CD
Страна-производитель диска: US
Год издания: 1998
Издатель (лейбл): 9 Winds Records
Номер по каталогу: NWCD0203
Страна: US
Аудиокодек: FLAC (*.flac)
Тип рипа: tracks+.cue
Битрейт аудио: lossless
Продолжительность: 64:23
Источник (релизер): свой фирменный диск
Наличие сканов в содержимом раздачи:
Треклист:
1. Phonation 3:12
2. Not Quite (What You Thought) 5:05
3. Caucus 1 5:32
4. 5 a.m. 3:27
5. Into Thick Air 3:40
6. Caucus 2 3:58
7. Circular Logic 6:00
8. Diatribe, Part 4 3:51
9. Maybe It's The Light 4:46
10. Indeterminate Duo 2 4:28
11. In Ludwig's House 9:22
12. Glue 4:22
13. Indeterminate Duo 1 3:14
14. Symbolic Logic 2:43
 
Лог создания рипа
Exact Audio Copy V1.0 beta 3 from 29. August 2011
EAC extraction logfile from 15. January 2014, 20:30
Steve Adams & Vinny Golia / Circular Logic (Music For Woodwinds)
Used drive : PIONEER DVD-RW DVR-115D Adapter: 0 ID: 0
Read mode : Secure
Utilize accurate stream : Yes
Defeat audio cache : Yes
Make use of C2 pointers : No
Read offset correction : 48
Overread into Lead-In and Lead-Out : No
Fill up missing offset samples with silence : Yes
Delete leading and trailing silent blocks : No
Null samples used in CRC calculations : Yes
Used interface : Installed external ASPI interface
Gap handling : Appended to previous track
Used output format : User Defined Encoder
Selected bitrate : 896 kBit/s
Quality : High
Add ID3 tag : No
Command line compressor : C:\Program Files\Exact Audio Copy\FLAC\FLAC.EXE
Additional command line options : -6 -V -T "ARTIST=%artist%" -T "TITLE=%title%" -T "ALBUM=%albumtitle%" -T "DATE=%year%" -T "TRACKNUMBER=%tracknr%" -T "GENRE=%genre%" -T "COMMENT=%comment%" -T "BAND=%albuminterpret%" -T "COMPOSER=%composer%" %haslyrics%--tag-from-file=LYRICS="%lyricsfile%"%haslyrics% -T "DISCNUMBER=%cdnumber%" -T "TOTALDISCS=%totalcds%" -T "TOTALTRACKS=%numtracks%" %hascover%--picture="%coverfile%"%hascover% %source% -o %dest%
TOC of the extracted CD
Track | Start | Length | Start sector | End sector
---------------------------------------------------------
1 | 0:00.00 | 3:15.32 | 0 | 14656
2 | 3:15.32 | 5:07.28 | 14657 | 37709
3 | 8:22.60 | 5:34.44 | 37710 | 62803
4 | 13:57.29 | 3:30.51 | 62804 | 78604
5 | 17:28.05 | 3:43.38 | 78605 | 95367
6 | 21:11.43 | 4:00.41 | 95368 | 113408
7 | 25:12.09 | 6:02.25 | 113409 | 140583
8 | 31:14.34 | 3:54.73 | 140584 | 158206
9 | 35:09.32 | 4:49.68 | 158207 | 179949
10 | 39:59.25 | 4:33.17 | 179950 | 200441
11 | 44:32.42 | 9:25.37 | 200442 | 242853
12 | 53:58.04 | 4:24.34 | 242854 | 262687
13 | 58:22.38 | 3:18.14 | 262688 | 277551
14 | 61:40.52 | 2:42.32 | 277552 | 289733
Track 1
Filename D:\zzz\01 - Phonation.wav
Pre-gap length 0:00:02.00
Peak level 78.1 %
Extraction speed 4.1 X
Track quality 100.0 %
Test CRC A26DF237
Copy CRC A26DF237
Track not present in AccurateRip database
Copy OK
Track 2
Filename D:\zzz\02 - Not Quite (What You Thought).wav
Pre-gap length 0:00:03.60
Peak level 79.3 %
Extraction speed 4.8 X
Track quality 100.0 %
Test CRC C5EF9B9A
Copy CRC C5EF9B9A
Track not present in AccurateRip database
Copy OK
Track 3
Filename D:\zzz\03 - Caucus 1.wav
Pre-gap length 0:00:02.60
Peak level 98.8 %
Extraction speed 5.4 X
Track quality 100.0 %
Test CRC 85577FA3
Copy CRC 85577FA3
Track not present in AccurateRip database
Copy OK
Track 4
Filename D:\zzz\04 - 5 a.m..wav
Pre-gap length 0:00:02.60
Peak level 59.4 %
Extraction speed 5.5 X
Track quality 100.0 %
Test CRC 1263D5EB
Copy CRC 1263D5EB
Track not present in AccurateRip database
Copy OK
Track 5
Filename D:\zzz\05 - Into Thick Air.wav
Pre-gap length 0:00:03.59
Peak level 85.8 %
Extraction speed 5.8 X
Track quality 100.0 %
Test CRC 574F5DAD
Copy CRC 574F5DAD
Track not present in AccurateRip database
Copy OK
Track 6
Filename D:\zzz\06 - Caucus 2.wav
Pre-gap length 0:00:03.59
Peak level 73.7 %
Extraction speed 6.1 X
Track quality 100.0 %
Test CRC BD7D161A
Copy CRC BD7D161A
Track not present in AccurateRip database
Copy OK
Track 7
Filename D:\zzz\07 - Circular Logic.wav
Pre-gap length 0:00:02.60
Peak level 83.0 %
Extraction speed 6.8 X
Track quality 100.0 %
Test CRC DDB2A65A
Copy CRC DDB2A65A
Track not present in AccurateRip database
Copy OK
Track 8
Filename D:\zzz\08 - Diatribe, Part 4.wav
Pre-gap length 0:00:02.60
Peak level 90.1 %
Extraction speed 6.7 X
Track quality 100.0 %
Test CRC 901BE627
Copy CRC 901BE627
Track not present in AccurateRip database
Copy OK
Track 9
Filename D:\zzz\09 - Maybe It's The Light.wav
Pre-gap length 0:00:03.60
Peak level 77.1 %
Extraction speed 7.2 X
Track quality 100.0 %
Test CRC C9E780FE
Copy CRC C9E780FE
Track not present in AccurateRip database
Copy OK
Track 10
Filename D:\zzz\10 - Indeteminate Duo 2.wav
Pre-gap length 0:00:03.59
Peak level 98.8 %
Extraction speed 6.6 X
Track quality 99.9 %
Test CRC 56A014BB
Copy CRC 56A014BB
Track not present in AccurateRip database
Copy OK
Track 11
Filename D:\zzz\11 - In Ludwig's House.wav
Pre-gap length 0:00:04.60
Peak level 69.7 %
Extraction speed 8.3 X
Track quality 100.0 %
Test CRC C6DE03D0
Copy CRC C6DE03D0
Track not present in AccurateRip database
Copy OK
Track 12
Filename D:\zzz\12 - Glue.wav
Pre-gap length 0:00:03.60
Peak level 98.8 %
Extraction speed 8.1 X
Track quality 100.0 %
Test CRC 0637FC53
Copy CRC 0637FC53
Track not present in AccurateRip database
Copy OK
Track 13
Filename D:\zzz\13 - Indeterminate Duo 1.wav
Pre-gap length 0:00:02.60
Peak level 62.7 %
Extraction speed 6.9 X
Track quality 99.9 %
Test CRC 74C7D156
Copy CRC 74C7D156
Track not present in AccurateRip database
Copy OK
Track 14
Filename D:\zzz\14 - Symbolic Logic.wav
Pre-gap length 0:00:03.60
Peak level 76.7 %
Extraction speed 7.8 X
Track quality 100.0 %
Test CRC 5F95D421
Copy CRC 5F95D421
Track not present in AccurateRip database
Copy OK
None of the tracks are present in the AccurateRip database
No errors occurred
End of status report
==== Log checksum 7C08FD5FE21AD8E56F7239242F33899FC12266AFD927D690CA357A25EFCD9342 ====
 
Содержание индексной карты (.CUE)
REM GENRE "Avant-Garde Jazz"
REM DATE 1998
REM DISCID A40F170E
REM COMMENT "ExactAudioCopy v1.0b3"
PERFORMER "Steve Adams & Vinny Golia"
TITLE "Circular Logic (Music For Woodwinds)"
FILE "01 - Phonation.wav" WAVE
TRACK 01 AUDIO
TITLE "Phonation"
PERFORMER "Steve Adams & Vinny Golia"
INDEX 01 00:00:00
TRACK 02 AUDIO
TITLE "Not Quite (What You Thought)"
PERFORMER "Steve Adams & Vinny Golia"
INDEX 00 03:11:47
FILE "02 - Not Quite (What You Thought).wav" WAVE
INDEX 01 00:00:00
TRACK 03 AUDIO
TITLE "Caucus 1"
PERFORMER "Steve Adams & Vinny Golia"
INDEX 00 05:04:43
FILE "03 - Caucus 1.wav" WAVE
INDEX 01 00:00:00
TRACK 04 AUDIO
TITLE "5 a.m."
PERFORMER "Steve Adams & Vinny Golia"
INDEX 00 05:31:59
FILE "04 - 5 a.m..wav" WAVE
INDEX 01 00:00:00
TRACK 05 AUDIO
TITLE "Into Thick Air"
PERFORMER "Steve Adams & Vinny Golia"
INDEX 00 03:26:67
FILE "05 - Into Thick Air.wav" WAVE
INDEX 01 00:00:00
TRACK 06 AUDIO
TITLE "Caucus 2"
PERFORMER "Steve Adams & Vinny Golia"
INDEX 00 03:39:54
FILE "06 - Caucus 2.wav" WAVE
INDEX 01 00:00:00
TRACK 07 AUDIO
TITLE "Circular Logic"
PERFORMER "Steve Adams & Vinny Golia"
INDEX 00 03:57:56
FILE "07 - Circular Logic.wav" WAVE
INDEX 01 00:00:00
TRACK 08 AUDIO
TITLE "Diatribe, Part 4"
PERFORMER "Steve Adams & Vinny Golia"
INDEX 00 05:59:40
FILE "08 - Diatribe, Part 4.wav" WAVE
INDEX 01 00:00:00
TRACK 09 AUDIO
TITLE "Maybe It's The Light"
PERFORMER "Steve Adams & Vinny Golia"
INDEX 00 03:51:13
FILE "09 - Maybe It's The Light.wav" WAVE
INDEX 01 00:00:00
TRACK 10 AUDIO
TITLE "Indeteminate Duo 2"
PERFORMER "Steve Adams & Vinny Golia"
INDEX 00 04:46:09
FILE "10 - Indeteminate Duo 2.wav" WAVE
INDEX 01 00:00:00
TRACK 11 AUDIO
TITLE "In Ludwig's House"
PERFORMER "Steve Adams & Vinny Golia"
INDEX 00 04:28:32
FILE "11 - In Ludwig's House.wav" WAVE
INDEX 01 00:00:00
TRACK 12 AUDIO
TITLE "Glue"
PERFORMER "Steve Adams & Vinny Golia"
INDEX 00 09:21:52
FILE "12 - Glue.wav" WAVE
INDEX 01 00:00:00
TRACK 13 AUDIO
TITLE "Indeterminate Duo 1"
PERFORMER "Steve Adams & Vinny Golia"
INDEX 00 04:21:49
FILE "13 - Indeterminate Duo 1.wav" WAVE
INDEX 01 00:00:00
TRACK 14 AUDIO
TITLE "Symbolic Logic"
PERFORMER "Steve Adams & Vinny Golia"
INDEX 00 03:14:29
FILE "14 - Symbolic Logic.wav" WAVE
INDEX 01 00:00:00
 
Лог проверки качества
d:\>d:\aucdtect -d/-m0 d:\zzz\*.wav
auCDtect: CD records authenticity detector, version 0.8.2
Copyright (c) 2004 Oleg Berngardt. All rights reserved.
Copyright (c) 2004 Alexander Djourik. All rights reserved.
------------------------------------------------------------
Processing file: [01. Phonation.wav]
------------------------------------------------------------
This track looks like CDDA with probability 100%
------------------------------------------------------------
Processing file: [02. Not Quite (What You Thought).wav]
------------------------------------------------------------
This track looks like CDDA with probability 100%
------------------------------------------------------------
Processing file: [03. Caucus 1.wav]
------------------------------------------------------------
This track looks like CDDA with probability 99%
------------------------------------------------------------
Processing file: [04. 5 a.m..wav]
------------------------------------------------------------
This track looks like CDDA with probability 100%
------------------------------------------------------------
Processing file: [05. Into Thick Air.wav]
------------------------------------------------------------
This track looks like CDDA with probability 100%
------------------------------------------------------------
Processing file: [06. Caucus 2.wav]
------------------------------------------------------------
This track looks like CDDA with probability 99%
------------------------------------------------------------
Processing file: [07. Circular Logic.wav]
------------------------------------------------------------
This track looks like CDDA with probability 100%
------------------------------------------------------------
Processing file: [08. Diatribe, Part 4.wav]
------------------------------------------------------------
This track looks like CDDA with probability 100%
------------------------------------------------------------
Processing file: [09. Maybe It's The Light.wav]
------------------------------------------------------------
This track looks like CDDA with probability 100%
------------------------------------------------------------
Processing file: [10. Indeteminate Duo 2.wav]
------------------------------------------------------------
This track looks like CDDA with probability 100%
------------------------------------------------------------
Processing file: [11. In Ludwig's House.wav]
------------------------------------------------------------
This track looks like CDDA with probability 100%
------------------------------------------------------------
Processing file: [12. Glue.wav]
------------------------------------------------------------
This track looks like CDDA with probability 100%
------------------------------------------------------------
Processing file: [13. Indeterminate Duo 1.wav]
------------------------------------------------------------
This track looks like CDDA with probability 100%
------------------------------------------------------------
Processing file: [14. Symbolic Logic.wav]
------------------------------------------------------------
This track looks like CDDA with probability 100%
------------------------------------------------------------
Final Conclusion:
------------------------------------------------------------
These tracks looks like CDDA with probability 100%
Доп. информация:
 
Album Info & AMG Review
2,4,8,12 & 11 composed by Steve Adams
All other compositions and arrangements by Steve Adams & Vinny Golia
Recorded at Newzone Studio, Santa Monica, CA, on March 22 and 23, 1998
Engineer: Wayne Peet
Mixed by Myles Boisen and Steve Adams on June 11 and 17, 1998
Mastered by Myles Boisen and Steve Adams at the Headless Buddha Mastering Lab, Oakland, CA, August 5 and 11, 1998
Layout & design by Jeff Atherton & Vinny Golia
Cover photo by Jeff Atherton
Photo of Steve by Warren Berman
Photo of Vinny by Neil France
In these woodwind duets between Adams (of the Rova Saxophone Quartet) and Golia, the two feed off each other's energies. Many times one will play a higher-register instrument, such as a soprano or alto sax or flute, while the other wields a bass sax, baritone sax, or bass clarinet. Sometime they match timbres, high or low, but mostly it's the two matching wits as if in a chess game, with musical moves, countermoves, and creative notions that speak in clear, American, freedom-based dialect, to the heart of pure, fearless spontaneity. On many selections, one is struck with the naturalness of it all. Sounds of birds are frequently conjured, soaring and swooping, waking in the morning with insistent chatter, or the hushed, late-night pall signifying the end of yet another day. Sometimes you hear the guttural howl of monsters, or the roar of a pride of lions. Lots of overblown harmonic smears are utilized, as well as the patient beauty of measured lines. A most palpable, childlike wonder is emoted in the soprano sax/bass clarinet pairing on "Not Quite What You Thought" and in the two playing flutes on the apropos "5 a.m." "Glue" hits a solid World Saxophone Quartet groove with alto and baritone sax, while "Caucus 2" and "Maybe It's the Light" display the pair in fluttering, skittish terms. The title track with flute and clarinet, the dueling sopranino saxes on "Diatribe, Pt. IV," and the lengthy tryptic for multi-flutes and clarinets "In Ludwig's House" are pretty self-explanatory. The finale, "Symbolic Logic," with bass flute and bass clarinet hinting at mystery and suggesting a sorcerer is producing the session, puts a spooky exclamation point on the program. This is a great example of the creative avant aesthetic coming home to roost in your face, sometimes serenely gorgeous or chaotically piercing. Adams and Golia are clearly masters of this idiom, and on this incredible disc they run the gamut of emotional, full force, no-holds-barred expressionist endeavor.
 
Состав
Steve Adams: sopranino, soprano, alto, tenor & baritone saxophones, c, alto & bass flutes
Vinny Golia: sopranino, baritone & bass saxophones, english horn, bassoon, piccolo, c, alto & bass flutes, Eb,Bb, A, alto, bass, contra-alto & contra bass clarinets
Any questions -> support@pro-jazz.com. По всем вопросам пишите -> support@pro-jazz.com
23:05
166
Нет комментариев. Ваш будет первым!