Вы используете незарегистрированную версию компонента "Вкладки"!

Поиск

(Free Jazz, Avant-Garde Jazz, Nine Winds) [CD] Pat O'Keefe, Jason Stanyek, Scott Walton, Glen Whitehead - Unbalancing Act - 1998, FLAC (tracks+.cue), lossless

(Free Jazz, Avant-Garde Jazz, Nine Winds) [CD] Pat O'Keefe, Jason Stanyek, Scott Walton, Glen Whitehead - Unbalancing Act - 1998, FLAC (tracks+.cue), lossless
Треклист:
Pat O'Keefe, Jason Stanyek, Scott Walton, Glen Whitehead / Unbalancing Act
Жанр: Free Jazz, Avant-Garde Jazz, Nine Winds
Носитель: CD
Страна-производитель диска: US
Год издания: 1998
Издатель (лейбл): 9 Winds Records
Номер по каталогу: NWCD0212
Страна: US
Аудиокодек: FLAC (*.flac)
Тип рипа: tracks+.cue
Битрейт аудио: lossless
Продолжительность: 64:52
Источник (релизер): свой фирменный диск
Наличие сканов в содержимом раздачи:
Треклист:
1. Semi-Breakable Containers 15:17
2. Tenebrae 11:33
3. Warp Soup 8:04
4. Sonia 3:32
5. Heeboyoyo 18:41
6. 17x 5:41
7. Micro-Major (Swells) 1:19
 
Лог создания рипа
Exact Audio Copy V1.0 beta 3 from 29. August 2011
EAC extraction logfile from 16. January 2014, 18:37
Pat O'Keefe, Jason Stanyek, Scott Walton, Glen Whitehead / Unbalancing Act
Used drive : PIONEER DVD-RW DVR-115D Adapter: 0 ID: 0
Read mode : Secure
Utilize accurate stream : Yes
Defeat audio cache : Yes
Make use of C2 pointers : No
Read offset correction : 48
Overread into Lead-In and Lead-Out : No
Fill up missing offset samples with silence : Yes
Delete leading and trailing silent blocks : No
Null samples used in CRC calculations : Yes
Used interface : Installed external ASPI interface
Gap handling : Appended to previous track
Used output format : User Defined Encoder
Selected bitrate : 896 kBit/s
Quality : High
Add ID3 tag : No
Command line compressor : C:\Program Files\Exact Audio Copy\FLAC\FLAC.EXE
Additional command line options : -6 -V -T "ARTIST=%artist%" -T "TITLE=%title%" -T "ALBUM=%albumtitle%" -T "DATE=%year%" -T "TRACKNUMBER=%tracknr%" -T "GENRE=%genre%" -T "COMMENT=%comment%" -T "BAND=%albuminterpret%" -T "COMPOSER=%composer%" %haslyrics%--tag-from-file=LYRICS="%lyricsfile%"%haslyrics% -T "DISCNUMBER=%cdnumber%" -T "TOTALDISCS=%totalcds%" -T "TOTALTRACKS=%numtracks%" %hascover%--picture="%coverfile%"%hascover% %source% -o %dest%
TOC of the extracted CD
Track | Start | Length | Start sector | End sector
---------------------------------------------------------
1 | 0:00.00 | 15:28.13 | 0 | 69612
2 | 15:28.13 | 11:36.02 | 69613 | 121814
3 | 27:04.15 | 8:10.15 | 121815 | 158579
4 | 35:14.30 | 3:40.70 | 158580 | 175149
5 | 38:55.25 | 18:48.48 | 175150 | 259797
6 | 57:43.73 | 5:46.22 | 259798 | 285769
7 | 63:30.20 | 1:22.30 | 285770 | 291949
Track 1
Filename D:\zzz\01 - Semi-Breakable Containers.wav
Pre-gap length 0:00:02.00
Peak level 99.2 %
Extraction speed 5.3 X
Track quality 100.0 %
Test CRC 1CD6B86D
Copy CRC 1CD6B86D
Track not present in AccurateRip database
Copy OK
Track 2
Filename D:\zzz\02 - Tenebrae.wav
Pre-gap length 0:00:07.15
Peak level 99.0 %
Extraction speed 6.5 X
Track quality 100.0 %
Test CRC D3CE143F
Copy CRC D3CE143F
Track not present in AccurateRip database
Copy OK
Track 3
Filename D:\zzz\03 - Warp Soup.wav
Pre-gap length 0:00:02.38
Peak level 99.2 %
Extraction speed 7.1 X
Track quality 100.0 %
Test CRC 753C2250
Copy CRC 753C2250
Track not present in AccurateRip database
Copy OK
Track 4
Filename D:\zzz\04 - Sonia.wav
Pre-gap length 0:00:04.71
Peak level 48.6 %
Extraction speed 6.9 X
Track quality 100.0 %
Test CRC C7373AFC
Copy CRC C7373AFC
Track not present in AccurateRip database
Copy OK
Track 5
Filename D:\zzz\05 - Heeboyoyo.wav
Pre-gap length 0:00:08.09
Peak level 99.1 %
Extraction speed 8.5 X
Track quality 100.0 %
Test CRC 49B62C93
Copy CRC 49B62C93
Track not present in AccurateRip database
Copy OK
Track 6
Filename D:\zzz\06 - 17x.wav
Pre-gap length 0:00:06.63
Peak level 79.8 %
Extraction speed 8.5 X
Track quality 100.0 %
Test CRC E0AEA541
Copy CRC E0AEA541
Track not present in AccurateRip database
Copy OK
Track 7
Filename D:\zzz\07 - Micro-Major (Swells).wav
Pre-gap length 0:00:04.01
Peak level 31.1 %
Extraction speed 6.7 X
Track quality 100.0 %
Test CRC 1A5C698D
Copy CRC 1A5C698D
Track not present in AccurateRip database
Copy OK
None of the tracks are present in the AccurateRip database
No errors occurred
End of status report
==== Log checksum 04B80F1BA7A07D67460C4585D544F6129C761316725247F5AB3598080C20DB4F ====
 
Содержание индексной карты (.CUE)
REM GENRE "Avant-Garde Jazz"
REM DATE 1998
REM DISCID 560F3407
REM COMMENT "ExactAudioCopy v1.0b3"
PERFORMER "Pat O'Keefe, Jason Stanyek, Scott Walton, Glen Whitehead"
TITLE "Unbalancing Act"
FILE "01 - Semi-Breakable Containers.wav" WAVE
TRACK 01 AUDIO
TITLE "Semi-Breakable Containers"
PERFORMER "Pat O'Keefe, Jason Stanyek, Scott Walton, Glen Whitehead"
INDEX 01 00:00:00
TRACK 02 AUDIO
TITLE "Tenebrae"
PERFORMER "Pat O'Keefe, Jason Stanyek, Scott Walton, Glen Whitehead"
INDEX 00 15:20:73
FILE "02 - Tenebrae.wav" WAVE
INDEX 01 00:00:00
TRACK 03 AUDIO
TITLE "Warp Soup"
PERFORMER "Pat O'Keefe, Jason Stanyek, Scott Walton, Glen Whitehead"
INDEX 00 11:33:39
FILE "03 - Warp Soup.wav" WAVE
INDEX 01 00:00:00
TRACK 04 AUDIO
TITLE "Sonia"
PERFORMER "Pat O'Keefe, Jason Stanyek, Scott Walton, Glen Whitehead"
INDEX 00 08:05:19
FILE "04 - Sonia.wav" WAVE
INDEX 01 00:00:00
TRACK 05 AUDIO
TITLE "Heeboyoyo"
PERFORMER "Pat O'Keefe, Jason Stanyek, Scott Walton, Glen Whitehead"
INDEX 00 03:32:61
FILE "05 - Heeboyoyo.wav" WAVE
INDEX 01 00:00:00
TRACK 06 AUDIO
TITLE "17x"
PERFORMER "Pat O'Keefe, Jason Stanyek, Scott Walton, Glen Whitehead"
INDEX 00 18:41:60
FILE "06 - 17x.wav" WAVE
INDEX 01 00:00:00
TRACK 07 AUDIO
TITLE "Micro-Major (Swells)"
PERFORMER "Pat O'Keefe, Jason Stanyek, Scott Walton, Glen Whitehead"
INDEX 00 05:42:21
FILE "07 - Micro-Major (Swells).wav" WAVE
INDEX 01 00:00:00
 
Лог проверки качества
d:\>d:\aucdtect -d/-m0 d:\zzz\*.wav
auCDtect: CD records authenticity detector, version 0.8.2
Copyright (c) 2004 Oleg Berngardt. All rights reserved.
Copyright (c) 2004 Alexander Djourik. All rights reserved.
------------------------------------------------------------
Processing file: [01. Semi-Breakable Containers.wav]
------------------------------------------------------------
This track looks like MPEG with probability 93%
------------------------------------------------------------
Processing file: [02. Tenebrae.wav]
------------------------------------------------------------
This track looks like MPEG with probability 90%
------------------------------------------------------------
Processing file: [03. Warp Soup.wav]
------------------------------------------------------------
This track looks like CDDA with probability 100%
------------------------------------------------------------
Processing file: [04. Sonia.wav]
------------------------------------------------------------
This track looks like MPEG with probability 93%
------------------------------------------------------------
Processing file: [05. Heeboyoyo.wav]
------------------------------------------------------------
This track looks like CDDA with probability 100%
------------------------------------------------------------
Processing file: [06. 17x.wav]
------------------------------------------------------------
This track looks like CDDA with probability 100%
------------------------------------------------------------
Processing file: [07. Micro-Major (Swells).wav]
------------------------------------------------------------
This track looks like CDDA with probability 100%
------------------------------------------------------------
Final Conclusion:
------------------------------------------------------------
These tracks looks like CDDA with probability 100%
Доп. информация:
 
Album Info & AMG Review
All compositions by O'Keefe, Stanyek, Walton and Whitehead
Produced, recorded and mixed by O'Keefe, Stanyek, Walton and Whitehead
Recorded July-August 1997 at the University of California, San Diego in La Jolla, California
Mastered by John Golden
Layout by Jeff Atherton & Vinny Golia
Liner notes: George E. Lewis
Dedicated to the memory of Wendilee Whitehead
This democratic quartet of improvisers sounds like they claim allegiance to no one in particular, except themselves, maybe Sun Ra. They collectively assume co-composers credits on these seven selections which range from far out to further out. Bar lines are for the most part scrapped, the harmonic saturation point is well beyond 100-percent, and Jason Stanyek's unique quarter tone and fretless electric guitar sounds, which defy description, are at the base of their musings. Pat O'Keefe is heard on clarinet or bass clarinet, Scott Walton primarily on arco and pizzicato acoustic upright bass, some prepared piano, and Glen Whitehead on trumpet. Three pieces are quite lengthy; "Semi-Breakable Containers" at 15 minutes, incorporates somewhat of a beat with Walton's bass, it's even semi-funky, as Whitehead leads down the snake path, followed by Stanyek's goofy, psychedelic guitar. "Tenebrae" at 11-and-a-half minutes, has Stanyek plucking on the koto while O'Keefe's bass clarinet questions his motives. The almost-19-minute "Heeboyoyo" is like four rocket ships taking off. Walton's bowed, ripchord bass is the booster. Whitehead's growling or ducky trumpet and Stanyek's freaked-out guitar overloads already burned out circuits, but keep the mission going to the crab nebula through a series of space storms and galactic warp signatures, courtesy of O'Keefe's softly screeching bass clarinet. They end with three minutes of collective improvising, as if having landed, scanning the terrain. "Warp Soup" has a deep chordal blues motif surrounded by chaos from the others. "Sonia," "17x," and "Micro Major" are the shorties, the first two workouts for guitar, a bit more twangy during the latter, the finale 1:19 of swelling sounds, pulsing from an alien blowfish infected with nuclear material. All sci-fi. As you might be able to tell, the imagery from this music is stark, palpable, and very real. This is a wild-assed CD no faint hearts should touch. But those reaching out for contact with that all-too-distant universe might want to seek and explore, along with these forward-thinking musicians.
 
Состав
Pat O'Keefe: clarinet, bass clarinet
Jason Stanyek: quarter-tone and fretless guitars, koto
Scott Walton: bass, prepared piano
Glen Whitehead: trumpet
Any questions -> support@pro-jazz.com. По всем вопросам пишите -> support@pro-jazz.com
23:06
151
Нет комментариев. Ваш будет первым!