Вы используете незарегистрированную версию компонента "Вкладки"!

Поиск

(Free Jazz, Free Improvisation) [CD] Paul Dunmall, Tony Orrell, Jim Barr - Deep See - 2007, FLAC (tracks+.cue), lossless

(Free Jazz, Free Improvisation) [CD] Paul Dunmall, Tony Orrell, Jim Barr - Deep See - 2007, FLAC (tracks+.cue), lossless
Треклист:
Paul Dunmall, Tony Orrell, Jim Barr / Deep See
Жанр: Free Jazz, Free Improvisation
Носитель: CD
Страна-производитель диска (релиза): UK
Год издания: 2007
Издатель (лейбл): FMR Records
Номер по каталогу: FMR CD217-0207
Аудиокодек: FLAC (*.flac)
Тип рипа: tracks+.cue
Битрейт аудио: lossless
Продолжительность: 52:25
Источник (релизер): CD
Наличие сканов в содержимом раздачи: нет
Треклист:
1. Deep sea diver (23.03)
2. Cookle hen (17.12)
3. Sausage or gregory (12.08)
 
Лог создания рипа
Exact Audio Copy V1.0 beta 3 from 29. August 2011
EAC extraction logfile from 10. March 2015, 10:14
Dunmall, Orrell, Barr / Deep See
Used drive : ASUS DRW-24F1ST a Adapter: 0 ID: 0
Read mode : Secure
Utilize accurate stream : Yes
Defeat audio cache : Yes
Make use of C2 pointers : No
Read offset correction : 6
Overread into Lead-In and Lead-Out : No
Fill up missing offset samples with silence : Yes
Delete leading and trailing silent blocks : No
Null samples used in CRC calculations : Yes
Used interface : Native Win32 interface for Win NT & 2000
Gap handling : Appended to previous track
Used output format : User Defined Encoder
Selected bitrate : 320 kBit/s
Quality : High
Add ID3 tag : No
Command line compressor : D:\Programs\Exact Audio Copy\Flac\flac.exe
Additional command line options : -V -8 -T "Genre=%genre%" -T "Artist=%artist%" -T "Title=%title%" -T "Album=%albumtitle%" -T "Date=%year%" -T "Tracknumber=%tracknr%" -T "Comment=%comment%" %source%
TOC of the extracted CD
Track | Start | Length | Start sector | End sector
---------------------------------------------------------
1 | 0:00.00 | 23:03.73 | 0 | 103797
2 | 23:03.73 | 17:12.66 | 103798 | 181263
3 | 40:16.64 | 12:08.68 | 181264 | 235931
Track 1
Filename D:\EAC\01 Deep See Diver.wav
Pre-gap length 0:00:02.00
Peak level 60.4 %
Extraction speed 5.8 X
Track quality 100.0 %
Test CRC A0203ACD
Copy CRC A0203ACD
Copy OK
Track 2
Filename D:\EAC\02 Cookie Hen.wav
Pre-gap length 0:00:02.00
Peak level 100.0 %
Extraction speed 7.5 X
Track quality 100.0 %
Test CRC BCFBF9D7
Copy CRC BCFBF9D7
Copy OK
Track 3
Filename D:\EAC\03 Sausage or Gregory.wav
Pre-gap length 0:00:02.00
Peak level 100.0 %
Extraction speed 8.4 X
Track quality 100.0 %
Test CRC D210C805
Copy CRC D210C805
Copy OK
No errors occurred
End of status report
==== Log checksum 5142E18C763275EC14942BB7D2B2837EF81226CE4F8493FFC01DC1F46CAC9FA1 ====
 
Содержание индексной карты (.CUE)
REM GENRE Jazz
REM DATE 2007
REM DISCID 220C4903
REM COMMENT "ExactAudioCopy v1.0b3"
PERFORMER "Dunmall, Orrell, Barr"
TITLE "Deep See"
FILE "01 Deep See Diver.wav" WAVE
TRACK 01 AUDIO
TITLE "Deep See Diver"
PERFORMER "Dunmall, Orrell, Barr"
INDEX 01 00:00:00
TRACK 02 AUDIO
TITLE "Cookie Hen"
PERFORMER "Dunmall, Orrell, Barr"
INDEX 00 23:01:73
FILE "02 Cookie Hen.wav" WAVE
INDEX 01 00:00:00
TRACK 03 AUDIO
TITLE "Sausage or Gregory"
PERFORMER "Dunmall, Orrell, Barr"
INDEX 00 17:10:66
FILE "03 Sausage or Gregory.wav" WAVE
INDEX 01 00:00:00
Доп. информация: Recorded 16 November 2006 (no location but presumably at University of the West of England, Bristol, as DLE055).
 
Об альбоме (сборнике)
No, this is not music for scuba-diving, though it may be an interesting experience. The cover art is some of the most unusual I have seen for this kind of music, but then again, what are the rules? Paul Dunmall is a British sax (and bagpipe!) player who has performed and recorded with musicians as diverse as Johnny Guitar Watson, Alice Coltrane and Keith Tippett, and who has been an essential part of the European free improv scene for the past decades. On this record he is accompanied by Tony Orrell on drums and Jim Barr on bass. The music is absolutely fantastic. It is accessible, free, light-footed dancing from beginning to end, with Dunmall playing extremely melodic (without playing themes), very softly, as if he's afraid of creating waves. The interplay among the three musicians is subtle, respectful, creative and focused on shaping this very gentle, fragile kind of free-form improv. Throughout the album, there is some boppish rhythm either explicitly in the foreground or implicitly present in the playing of the musicians. And don't worry, Dunmall sticks to his sax on this record. Coming back to the art work : the music does conjure up feelings of wonder, surprise and sympathy, feelings I could imagine having when admiring the deep sea landscape. Highly recommended.
 
Состав
Paul Dunmall, tenor and soprano saxophone
Jim Barr, bass
Tony Orrell, drums
По всем вопросам пишите личное сообщение пользователю M0p94ok.
10:11
268
Нет комментариев. Ваш будет первым!