Вы используете незарегистрированную версию компонента "Вкладки"!

Поиск

(Free Improvisation, Electroacoustic, Creative Sources) [CD] Ernesto Rodrigues, Neil Davidson, Wade Matthews - Erosions - 2010, FLAC (tracks+.cue), lossless

(Free Improvisation, Electroacoustic, Creative Sources) [CD] Ernesto Rodrigues, Neil Davidson, Wade Matthews - Erosions - 2010, FLAC (tracks+.cue), lossless
Треклист:
Ernesto Rodrigues, Neil Davidson, Wade Matthews / Erosions
Жанр: Free Improvisation, Electroacoustic, Creative Sources
Носитель: CD
Страна-производитель диска (релиза): Portugal
Год издания: 2010
Издатель (лейбл): Creative Sources
Номер по каталогу: cs 172 cd
Страна исполнителя (группы): International
Аудиокодек: FLAC (*.flac)
Тип рипа: tracks+.cue
Битрейт аудио: lossless
Продолжительность: 00:40:13
Источник (релизер): свой фирменный диск
Наличие сканов в содержимом раздачи:
Треклист:
1. untitled 8:24
2. untitled 3:27
3. untitled 5:56
4. untitled 6:20
5. untitled 14:08
 
Лог создания рипа
Exact Audio Copy V1.0 beta 3 from 29. August 2011
EAC extraction logfile from 17. December 2014, 19:24
Ernesto Rodrigues, Neil Davidson, Wade Matthews / Erosions
Used drive : PIONEER DVD-RW DVR-115D Adapter: 0 ID: 0
Read mode : Secure
Utilize accurate stream : Yes
Defeat audio cache : Yes
Make use of C2 pointers : No
Read offset correction : 48
Overread into Lead-In and Lead-Out : No
Fill up missing offset samples with silence : Yes
Delete leading and trailing silent blocks : No
Null samples used in CRC calculations : Yes
Used interface : Installed external ASPI interface
Gap handling : Appended to previous track
Used output format : User Defined Encoder
Selected bitrate : 768 kBit/s
Quality : High
Add ID3 tag : No
Command line compressor : C:\Program Files\Exact Audio Copy\Flac\flac.exe
Additional command line options : -6 -V -T "ARTIST=%artist%" -T "TITLE=%title%" -T "ALBUM=%albumtitle%" -T "DATE=%year%" -T "TRACKNUMBER=%tracknr%" -T "GENRE=%genre%" -T "COMMENT=%comment%" -T "BAND=%albuminterpret%" -T "COMPOSER=%composer%" %haslyrics%--tag-from-file=LYRICS="%lyricsfile%"%haslyrics% -T "DISCNUMBER=%cdnumber%" -T "TOTALDISCS=%totalcds%" -T "TOTALTRACKS=%numtracks%" %hascover%--picture="%coverfile%"%hascover% %source% -o %dest%
TOC of the extracted CD
Track | Start | Length | Start sector | End sector
---------------------------------------------------------
1 | 0:00.00 | 8:26.47 | 0 | 37996
2 | 8:26.47 | 3:29.42 | 37997 | 53713
3 | 11:56.14 | 5:58.40 | 53714 | 80603
4 | 17:54.54 | 8:09.43 | 80604 | 117321
5 | 26:04.22 | 14:08.53 | 117322 | 180974
Track 1
Filename D:\zzz\01 - untitled.wav
Pre-gap length 0:00:02.00
Peak level 98.8 %
Extraction speed 4.6 X
Track quality 99.9 %
Test CRC 51B7F9F9
Copy CRC 51B7F9F9
Track not present in AccurateRip database
Copy OK
Track 2
Filename D:\zzz\02 - untitled.wav
Pre-gap length 0:00:02.00
Peak level 98.8 %
Extraction speed 5.0 X
Track quality 100.0 %
Test CRC 62E1BFE6
Copy CRC 62E1BFE6
Track not present in AccurateRip database
Copy OK
Track 3
Filename D:\zzz\03 - untitled.wav
Pre-gap length 0:00:02.00
Peak level 98.8 %
Extraction speed 5.4 X
Track quality 99.9 %
Test CRC FAA272DB
Copy CRC FAA272DB
Track not present in AccurateRip database
Copy OK
Track 4
Filename D:\zzz\04 - untitled.wav
Pre-gap length 0:00:02.00
Peak level 98.8 %
Extraction speed 6.5 X
Track quality 100.0 %
Test CRC C9D3FAC6
Copy CRC C9D3FAC6
Track not present in AccurateRip database
Copy OK
Track 5
Filename D:\zzz\05 - untitled.wav
Pre-gap length 0:00:02.00
Peak level 98.8 %
Extraction speed 7.6 X
Track quality 100.0 %
Test CRC 0A633E80
Copy CRC 0A633E80
Track not present in AccurateRip database
Copy OK
None of the tracks are present in the AccurateRip database
No errors occurred
End of status report
==== Log checksum 0A2473F9EB657533D1F0B9BCBE77DD29A02E13D050A914C8E1CFBB22EBE5690B ====
 
Содержание индексной карты (.CUE)
REM GENRE "Electroacoustic Improvisation"
REM DATE 2010
REM DISCID 3F096D05
REM COMMENT "ExactAudioCopy v1.0b3"
PERFORMER "Ernesto Rodrigues, Neil Davidson, Wade Matthews"
TITLE "Erosions"
FILE "01 - untitled.wav" WAVE
TRACK 01 AUDIO
TITLE "untitled"
PERFORMER "Ernesto Rodrigues, Neil Davidson, Wade Matthews"
INDEX 01 00:00:00
TRACK 02 AUDIO
TITLE "untitled"
PERFORMER "Ernesto Rodrigues, Neil Davidson, Wade Matthews"
INDEX 00 08:24:47
FILE "02 - untitled.wav" WAVE
INDEX 01 00:00:00
TRACK 03 AUDIO
TITLE "untitled"
PERFORMER "Ernesto Rodrigues, Neil Davidson, Wade Matthews"
INDEX 00 03:27:42
FILE "03 - untitled.wav" WAVE
INDEX 01 00:00:00
TRACK 04 AUDIO
TITLE "untitled"
PERFORMER "Ernesto Rodrigues, Neil Davidson, Wade Matthews"
INDEX 00 05:56:40
FILE "04 - untitled.wav" WAVE
INDEX 01 00:00:00
TRACK 05 AUDIO
TITLE "untitled"
PERFORMER "Ernesto Rodrigues, Neil Davidson, Wade Matthews"
INDEX 00 08:07:43
FILE "05 - untitled.wav" WAVE
INDEX 01 00:00:00
 
Лог проверки качества
d:\>d:\aucdtect -d/-m0 d:\zzz\*.wav
auCDtect: CD records authenticity detector, version 0.8.2
Copyright (c) 2004 Oleg Berngardt. All rights reserved.
Copyright (c) 2004 Alexander Djourik. All rights reserved.
------------------------------------------------------------
Processing file: [01. untitled.wav]
------------------------------------------------------------
This track looks like CDDA with probability 100%
------------------------------------------------------------
Processing file: [02. untitled.wav]
------------------------------------------------------------
This track looks like CDDA with probability 100%
------------------------------------------------------------
Processing file: [03. untitled.wav]
------------------------------------------------------------
This track looks like CDDA with probability 100%
------------------------------------------------------------
Processing file: [04. untitled.wav]
------------------------------------------------------------
This track looks like CDDA with probability 100%
------------------------------------------------------------
Processing file: [05. untitled.wav]
------------------------------------------------------------
This track looks like CDDA with probability 99%
------------------------------------------------------------
Final Conclusion:
------------------------------------------------------------
These tracks looks like CDDA with probability 100%
Доп. информация:
 
Album Info & Review
Recorded on March 9, 2010 at Smiling Cow Studio, Madrid
Mixed and mastered in June 2010 by Wade Matthews at Smiling Cow Studio, Madrid
Photos by Mary Petrosky
Graphic design by Carlos Santos
Produced by Ernesto Rodrigues
Liner notes: Wade Matthews, Madrid, July 7, 2010
Tired and thoroughly fed up tonight for a number of reasons, but the good news is that I have managed to get a week off of work next week, a much needed chance to recharge the batteries a little and sort things out around here, which I haven’t been able to do since the crazy Christmas period. This evening then, after getting home from work quite late I have been able to spend some time with a CD that I have been playing quite a bit since I was generously given it at the weekend. Sometimes its nice to write about a disc quite early, even when the backlog is still quite daunting, and so tonight a few words about the new disc by Ernesto Rodrigues, (viola) Neil Davidson (acoustic guitar) and Wade Matthews (digital synthesis and manipulated field recordings), a CD on the Creative Sources label named Erosions. Caveats out of the way first then- I have worked on a CD with Davidson recently, consider him a good friend and was handed this release while at a concert he organised in Glasgow last weekend. So take all of that into account as you read etc….
Erosions then, (great name for the album by the way) consists of five shortish studio improvisations recorded in Summer 2010. These pieces are, if simply described, great examples of good improvised electroacoustic music recorded by thoughtful, creative people. They are nothing more than this, nothing less. As I have written countless times before, you don’t always have to rewrite the rulebooks to make strong music. You also don’t have to have sold hundreds of records before or be the name that everyone is discussing. Because of the label it is released on, Erosions will doubtlessly be overlooked and/or written off without being listened to. This is a shame as its a really good listen.
The album is a busy, abrasive affair, but of the laminal, textural kind rather than any form of jazz related call and response. Sounds wrench into life and then scorch line across the sounds surrounding them. This isn’t a noisy album as such when considered in the greater scheme of things, but it does have a fiery, jagged edge to it. Davidson’s guitar is acoustic bar the use of eBows, but is recorded up close so that every knock and scratch is amplified, its presence in the music driving the music on into almost aggressive territory. Matthews’ laptop sounds very from ringing tones through to synthesised warbles and squelches, but they are used very nicely, never sounding out of place or too artificial alongside the two acoustic stringed instruments. The field recordings apparently manipulated here are also taken so far out of context that they are unidentifiable from the synthetically created sounds. Rodrigues’ vila in perhaps the most understated of the three parts, preferring to add subtle touches between the other two for much of the time, though equally close-miked there are occasions when it also comes right to the fore.
In his liner notes, Matthews compares the act of natural erosion to the processes involved in making the music as sounds are stripped away, new ones appearing, others altered by new surfaces running across them. These are nice analogies for the music, which has an organic, roughly hewn feel to it, and therefore makes a great disc to delve deep into, poke your ears into every nook and cranny, ride along on the crest of the momentum as everything comes crashing down. The pleasure comes from the interplay between the textural events, how one set of sounds is altered dramatically by the next cutting into it, how one detailed texture is coloured by a new layer of sound sprinkled across it. Following the music through its twists and turns, but also listening vertically down into it is a thoroughly rewarding experience to these ears, and one done best at a reasonable volume.
So a nicely balanced set of recordings that edges on the grainy, gritty side but still has a soft layer folded through it all pieced together with impeccable timing, Erosions is an album by a great trio that I like quite a bit and am very pleased to recommend. My favourite release of 2011 so far. - Richard Punnell, The Watchful Ear
 
Состав
Ernesto Rodrigues: viola
Neil Davidson: acoustic guitar
Wade Matthews: digital synthesis & manipulated field recordings
По всем вопросам пишите личное сообщение пользователю M0p94ok.
10:12
289
Нет комментариев. Ваш будет первым!