Вы используете незарегистрированную версию компонента "Вкладки"!

Поиск

(Contemporary Jazz, Avant-Garde Jazz) [CD] Daniel Humair, Emile Parisien, Jerome Regard, Vincent Peirani - Sweet & Sour - 2012, FLAC (tracks+.cue), lossless

(Contemporary Jazz, Avant-Garde Jazz) [CD] Daniel Humair, Emile Parisien, Jerome Regard, Vincent Peirani - Sweet & Sour - 2012, FLAC (tracks+.cue), lossless
Треклист:
Daniel Humair, Emile Parisien, Jerome Regard, Vincent Peirani - Sweet & Sour
Жанр: Contemporary Jazz, Avant-Garde Jazz
Носитель: CD
Страна-производитель диска (релиза): France
Год издания: 2012
Издатель (лейбл): Laborie Records ‎
Номер по каталогу: LJ19
Страна исполнителя (группы): France
Аудиокодек: FLAC (*.flac)
Тип рипа: tracks+.cue
Битрейт аудио: lossless
Продолжительность: 00:54:13
Источник (релизер): dtromp
Наличие сканов в содержимом раздачи: да

Daniel Humair - Batterie (tracks: 1 to 3, 5, 9)
Emile Parisien - Saxophones (tracks: 1 to 3, 5, 9)
Jérôme Regard - Contrebasse (tracks: 1 to 3, 5, 9)
Vincent Peirani - Accordéon, (tracks: 1 to 3, 5, 9)

01. A unicorn in captivity [05:51]
02. Ground zero [05:22]
03. Care 4 [06:16]
04. 7A3 [05:14]
05. T2T3 [03:09]
06. Oppression [03:29]
07. Shubertauster [06:13]
08. Debsh [07:04]
09. Ground one [04:53]
10. Road to perdition [06:37]

 
Лог создания рипа
Exact Audio Copy V1.0 beta 4 from 7. December 2014
EAC extraction logfile from 11. March 2015, 22:59
Daniel Humair / Sweet & Sour
Used drive : ATAPI iHBS112 2 Adapter: 1 ID: 0
Read mode : Secure
Utilize accurate stream : Yes
Defeat audio cache : Yes
Make use of C2 pointers : No
Read offset correction : 6
Overread into Lead-In and Lead-Out : No
Fill up missing offset samples with silence : Yes
Delete leading and trailing silent blocks : No
Null samples used in CRC calculations : Yes
Used interface : Native Win32 interface for Win NT & 2000
Gap handling : Appended to previous track
Used output format : User Defined Encoder
Selected bitrate : 1024 kBit/s
Quality : High
Add ID3 tag : No
Command line compressor : C:\Program Files\Exact Audio Copy\Flac\flac.exe
Additional command line options : -8 -V -T "ARTIST=%artist%" -T "TITLE=%title%" -T "ALBUM=%albumtitle%" -T "DATE=%year%" -T "TRACKNUMBER=%tracknr%" -T "TOTALTRACKS=%numtracks%" -T "GENRE=%genre%" -T "ALBUMARTIST=%albumartist%" -T "ALBUM ARTIST=%albumartist%" -T "COMPOSER=%composer%" -T "PERFORMER=%albuminterpret%" -T "DISCNUMBER=%cdnumber%" -T "TOTALDISCS=%totalcds%" -T "COMMENT=EAC Secure Mode, Test & Copy, AccurateRip, FLAC -8" %source%
TOC of the extracted CD
Track | Start | Length | Start sector | End sector
---------------------------------------------------------
1 | 0:00.00 | 5:51.09 | 0 | 26333
2 | 5:51.09 | 5:25.57 | 26334 | 50765
3 | 11:16.66 | 6:20.22 | 50766 | 79287
4 | 17:37.13 | 5:16.62 | 79288 | 103049
5 | 22:54.00 | 3:13.42 | 103050 | 117566
6 | 26:07.42 | 3:31.14 | 117567 | 133405
7 | 29:38.56 | 6:15.59 | 133406 | 161589
8 | 35:54.40 | 7:06.45 | 161590 | 193584
9 | 43:01.10 | 4:55.06 | 193585 | 215715
10 | 47:56.16 | 6:37.61 | 215716 | 245551
Track 1
Filename P:\DL\Daniel Humair - Sweet & Sour (2012) [FLAC]\01 - A unicorn in captivity.wav
Pre-gap length 0:00:02.00
Peak level 98.8 %
Extraction speed 5.2 X
Track quality 100.0 %
Test CRC C2242A28
Copy CRC C2242A28
Accurately ripped (confidence 11) [E53B59EB] (AR v2)
Copy OK
Track 2
Filename P:\DL\Daniel Humair - Sweet & Sour (2012) [FLAC]\02 - Ground zero.wav
Peak level 98.8 %
Extraction speed 5.9 X
Track quality 100.0 %
Test CRC 084A0D11
Copy CRC 084A0D11
Accurately ripped (confidence 11) [9389253C] (AR v2)
Copy OK
Track 3
Filename P:\DL\Daniel Humair - Sweet & Sour (2012) [FLAC]\03 - Care 4.wav
Pre-gap length 0:00:03.00
Peak level 98.8 %
Extraction speed 6.6 X
Track quality 100.0 %
Test CRC B3833543
Copy CRC B3833543
Accurately ripped (confidence 11) [27B3653D] (AR v2)
Copy OK
Track 4
Filename P:\DL\Daniel Humair - Sweet & Sour (2012) [FLAC]\04 - 7A3.wav
Pre-gap length 0:00:04.00
Peak level 98.8 %
Extraction speed 7.1 X
Track quality 100.0 %
Test CRC FB1363A3
Copy CRC FB1363A3
Accurately ripped (confidence 11) [8804B82D] (AR v2)
Copy OK
Track 5
Filename P:\DL\Daniel Humair - Sweet & Sour (2012) [FLAC]\05 - T2T3.wav
Pre-gap length 0:00:02.00
Peak level 98.8 %
Extraction speed 5.6 X
Track quality 99.9 %
Test CRC A595A7C6
Copy CRC A595A7C6
Accurately ripped (confidence 11) [ABB5DC75] (AR v2)
Copy OK
Track 6
Filename P:\DL\Daniel Humair - Sweet & Sour (2012) [FLAC]\06 - Oppression.wav
Pre-gap length 0:00:04.00
Peak level 98.8 %
Extraction speed 7.2 X
Track quality 100.0 %
Test CRC 9FD25024
Copy CRC 9FD25024
Accurately ripped (confidence 11) [606DE39C] (AR v2)
Copy OK
Track 7
Filename P:\DL\Daniel Humair - Sweet & Sour (2012) [FLAC]\07 - Shubertauster.wav
Pre-gap length 0:00:02.00
Peak level 98.8 %
Extraction speed 7.2 X
Track quality 99.9 %
Test CRC 1BE6568D
Copy CRC 1BE6568D
Accurately ripped (confidence 11) [2E371A0C] (AR v2)
Copy OK
Track 8
Filename P:\DL\Daniel Humair - Sweet & Sour (2012) [FLAC]\08 - Debsh.wav
Pre-gap length 0:00:02.00
Peak level 98.8 %
Extraction speed 7.4 X
Track quality 99.9 %
Test CRC D6FD1914
Copy CRC D6FD1914
Accurately ripped (confidence 11) [9DE8C95A] (AR v2)
Copy OK
Track 9
Filename P:\DL\Daniel Humair - Sweet & Sour (2012) [FLAC]\09 - Ground one.wav
Pre-gap length 0:00:02.00
Peak level 98.8 %
Extraction speed 8.0 X
Track quality 100.0 %
Test CRC F053A088
Copy CRC F053A088
Accurately ripped (confidence 11) [98A676FA] (AR v2)
Copy OK
Track 10
Filename P:\DL\Daniel Humair - Sweet & Sour (2012) [FLAC]\10 - Road to perdition.wav
Pre-gap length 0:00:02.00
Peak level 98.8 %
Extraction speed 9.0 X
Track quality 100.0 %
Test CRC 886F9427
Copy CRC 886F9427
Accurately ripped (confidence 11) [E22846E4] (AR v2)
Copy OK
All tracks accurately ripped
No errors occurred
End of status report
---- CUETools DB Plugin V2.1.4
[CTDB TOCID: VYnbmvuPoCcAd_45pJJm8sK1jic-] found
Submit result:
Track | CTDB Status
1 | (9/9) Accurately ripped
2 | (9/9) Accurately ripped
3 | (9/9) Accurately ripped
4 | (9/9) Accurately ripped
5 | (9/9) Accurately ripped
6 | (9/9) Accurately ripped
7 | (9/9) Accurately ripped
8 | (9/9) Accurately ripped
9 | (9/9) Accurately ripped
10 | (9/9) Accurately ripped
==== Log checksum 66661E10D6793225544BB985CAD8D7A0B6B3C4EF656214ECCBEB45E5E0EA7C2E ====
 
Содержание индексной карты (.CUE)
REM GENRE Jazz
REM DATE 2012
REM DISCID A00CCA0A
REM COMMENT "ExactAudioCopy v1.0b4"
PERFORMER "Daniel Humair"
TITLE "Sweet & Sour"
FILE "01 - A unicorn in captivity.wav" WAVE
TRACK 01 AUDIO
TITLE "A unicorn in captivity"
PERFORMER "Daniel Humair"
INDEX 01 00:00:00
FILE "02 - Ground zero.wav" WAVE
TRACK 02 AUDIO
TITLE "Ground zero"
PERFORMER "Daniel Humair"
INDEX 01 00:00:00
TRACK 03 AUDIO
TITLE "Care 4"
PERFORMER "Daniel Humair"
INDEX 00 05:22:57
FILE "03 - Care 4.wav" WAVE
INDEX 01 00:00:00
TRACK 04 AUDIO
TITLE "7A3"
PERFORMER "Daniel Humair"
INDEX 00 06:16:22
FILE "04 - 7A3.wav" WAVE
INDEX 01 00:00:00
TRACK 05 AUDIO
TITLE "T2T3"
PERFORMER "Daniel Humair"
INDEX 00 05:14:62
FILE "05 - T2T3.wav" WAVE
INDEX 01 00:00:00
TRACK 06 AUDIO
TITLE "Oppression"
PERFORMER "Daniel Humair"
INDEX 00 03:09:42
FILE "06 - Oppression.wav" WAVE
INDEX 01 00:00:00
TRACK 07 AUDIO
TITLE "Shubertauster"
PERFORMER "Daniel Humair"
INDEX 00 03:29:14
FILE "07 - Shubertauster.wav" WAVE
INDEX 01 00:00:00
TRACK 08 AUDIO
TITLE "Debsh"
PERFORMER "Daniel Humair"
INDEX 00 06:13:59
FILE "08 - Debsh.wav" WAVE
INDEX 01 00:00:00
TRACK 09 AUDIO
TITLE "Ground one"
PERFORMER "Daniel Humair"
INDEX 00 07:04:45
FILE "09 - Ground one.wav" WAVE
INDEX 01 00:00:00
TRACK 10 AUDIO
TITLE "Road to perdition"
PERFORMER "Daniel Humair"
INDEX 00 04:53:06
FILE "10 - Road to perdition.wav" WAVE
INDEX 01 00:00:00
По всем вопросам пишите личное сообщение пользователю M0p94ok.
10:11
326
Нет комментариев. Ваш будет первым!