Вы используете незарегистрированную версию компонента "Вкладки"!

Поиск

(Free Jazz, Free Improvisation) [CD] Nick Malcolm Quartet (Alexander Hawkins, Olie Brice, Mark Whitlam) - Beyond These Voices - 2014, FLAC (tracks+.cue), lossless

(Free Jazz, Free Improvisation) [CD] Nick Malcolm Quartet (Alexander Hawkins, Olie Brice, Mark Whitlam) - Beyond These Voices - 2014, FLAC (tracks+.cue), lossless
Треклист:
Nick Malcolm Quartet / Beyond These Voices
Жанр: Free Jazz, Free Improvisation
Носитель: CD
Страна-производитель диска: U.K.
Год издания: 2014
Издатель (лейбл): Green Eyes Records
Номер по каталогу: GE15
Аудиокодек: FLAC (*.flac)
Тип рипа: tracks+.cue
Битрейт аудио: lossless
Продолжительность: 54:36
Источник (релизер): я
Наличие сканов в содержимом раздачи: да
Треклист:
1. Sidereal 7:19
2. There’s Leads in Their Pencils (for ML and JM) 7:04
3. Grimes 8:32
4. Improvisation I (Nick Malcolm & Olie Brice) 4:05
5. Views (for HG) 5:52
6. A Very Blusterous Day 8:15
7. Improvisation II (Alexander Hawkins & Mark Whitlam) 3:35
8. It’s Alright, We’re Going to the Zoo (for JAM) 4:24
9. Where, Beyond These Voices, There Is Peace 5:29
All music composed by Nick Malcolm except where indicated.
Recorded at Fieldgate Studios, Penarth on May 4th & 5th 2013.
Nick Malcolm – Trumpet
Alexander Hawkins – Piano
Olie Brice – Double Bass
Mark Whitlam – Drums
guest on 2, 5 & 6:
Corey Mwamba - Vibraphone
 
Лог создания рипа
Exact Audio Copy V1.0 beta 3 from 29. August 2011
EAC extraction logfile from 22. May 2014, 10:14
Nick Malcolm Quartet / Beyond These Voices
Used drive : SlimtypeeNAU508 5 Adapter: 1 ID: 0
Read mode : Secure
Utilize accurate stream : Yes
Defeat audio cache : Yes
Make use of C2 pointers : No
Read offset correction : 6
Overread into Lead-In and Lead-Out : No
Fill up missing offset samples with silence : Yes
Delete leading and trailing silent blocks : No
Null samples used in CRC calculations : Yes
Used interface : Native Win32 interface for Win NT & 2000
Gap handling : Appended to previous track
Used output format : User Defined Encoder
Selected bitrate : 768 kBit/s
Quality : High
Add ID3 tag : No
Command line compressor : C:\Program Files (x86)\Exact Audio Copy\Flac\flac.exe
Additional command line options : -8 -V -T "ARTIST=%artist%" -T "TITLE=%title%" -T "ALBUM=%albumtitle%" -T "DATE=%year%" -T "TRACKNUMBER=%tracknr%" -T "TOTALTRACKS=%numtracks%" -T "GENRE=%genre%" -T "ALBUMARTIST=%albumartist%" -T "ALBUM ARTIST=%albumartist%" -T "COMMENT=EAC Secure Mode, Test & Copy, AccurateRip, FLAC -8" %source%
TOC of the extracted CD
Track | Start | Length | Start sector | End sector
---------------------------------------------------------
1 | 0:00.00 | 7:18.69 | 0 | 32918
2 | 7:18.69 | 7:04.29 | 32919 | 64747
3 | 14:23.23 | 8:31.71 | 64748 | 103143
4 | 22:55.19 | 4:04.63 | 103144 | 121506
5 | 27:00.07 | 5:52.32 | 121507 | 147938
6 | 32:52.39 | 8:15.18 | 147939 | 185081
7 | 41:07.57 | 3:34.70 | 185082 | 201201
8 | 44:42.52 | 4:24.28 | 201202 | 221029
9 | 49:07.05 | 5:28.60 | 221030 | 245689
Track 1
Filename C:\EAC rips\01 - Sidereal.wav
Pre-gap length 0:00:02.00
Peak level 97.7 %
Extraction speed 2.3 X
Track quality 100.0 %
Test CRC F7EEDB6C
Copy CRC F7EEDB6C
Track not present in AccurateRip database
Copy OK
Track 2
Filename C:\EAC rips\02 - There's Lead in Their Pencils (for ML and JM).wav
Pre-gap length 0:00:00.30
Peak level 97.7 %
Extraction speed 2.8 X
Track quality 100.0 %
Test CRC 6CA85CCE
Copy CRC 6CA85CCE
Track not present in AccurateRip database
Copy OK
Track 3
Filename C:\EAC rips\03 - Grimes.wav
Pre-gap length 0:00:00.31
Peak level 97.7 %
Extraction speed 2.9 X
Track quality 99.9 %
Test CRC 85B44BD6
Copy CRC 85B44BD6
Track not present in AccurateRip database
Copy OK
Track 4
Filename C:\EAC rips\04 - Improvisation I.wav
Pre-gap length 0:00:00.31
Peak level 96.6 %
Extraction speed 3.2 X
Track quality 100.0 %
Test CRC 8F79D884
Copy CRC 8F79D884
Track not present in AccurateRip database
Copy OK
Track 5
Filename C:\EAC rips\05 - Views (for HG).wav
Pre-gap length 0:00:00.28
Peak level 97.7 %
Extraction speed 3.5 X
Track quality 100.0 %
Test CRC 9D9963DA
Copy CRC 9D9963DA
Track not present in AccurateRip database
Copy OK
Track 6
Filename C:\EAC rips\06 - A Very Blusterous Day.wav
Pre-gap length 0:00:00.28
Peak level 97.7 %
Extraction speed 3.9 X
Track quality 100.0 %
Test CRC 2926F31A
Copy CRC 2926F31A
Track not present in AccurateRip database
Copy OK
Track 7
Filename C:\EAC rips\07 - Improvisation II.wav
Pre-gap length 0:00:00.34
Peak level 82.9 %
Extraction speed 3.7 X
Track quality 100.0 %
Test CRC E4458A6E
Copy CRC E4458A6E
Track not present in AccurateRip database
Copy OK
Track 8
Filename C:\EAC rips\08 - It's Alright, We're Going to the Zoo (for JAM).wav
Pre-gap length 0:00:00.31
Peak level 97.7 %
Extraction speed 4.0 X
Track quality 100.0 %
Test CRC E5959AEB
Copy CRC E5959AEB
Track not present in AccurateRip database
Copy OK
Track 9
Filename C:\EAC rips\09 - Where, Beyond These Voices, There Is Peace.wav
Pre-gap length 0:00:00.31
Peak level 97.7 %
Extraction speed 4.3 X
Track quality 100.0 %
Test CRC 8B3A4C5A
Copy CRC 8B3A4C5A
Track not present in AccurateRip database
Copy OK
None of the tracks are present in the AccurateRip database
No errors occurred
End of status report
---- CUETools DB Plugin V2.1.4
[CTDB TOCID: 4SEUiWNNDFHgp.Dadek2uPGpDRI-] found
Submit result: already submitted
Track | CTDB Status
1 | (2/2) Accurately ripped
2 | (2/2) Accurately ripped
3 | (2/2) Accurately ripped
4 | (2/2) Accurately ripped
5 | (2/2) Accurately ripped
6 | (2/2) Accurately ripped
7 | (2/2) Accurately ripped
8 | (2/2) Accurately ripped
9 | (2/2) Accurately ripped
==== Log checksum CB1E5251818F547CECAC8AF03C804D0E41AD669BC4C8F9A5EA81A74AD3042D69 ====
 
Содержание индексной карты (.CUE)
REM GENRE Jazz
REM DATE 2014
REM DISCID 900CCB09
REM COMMENT "ExactAudioCopy v1.0b3"
PERFORMER "Nick Malcolm Quartet"
TITLE "Beyond These Voices"
FILE "01 - Sidereal.wav" WAVE
TRACK 01 AUDIO
TITLE "Sidereal"
PERFORMER "Nick Malcolm Quartet"
ISRC UK63Q1400001
INDEX 01 00:00:00
TRACK 02 AUDIO
TITLE "There's Lead in Their Pencils (For ML and JM)"
PERFORMER "Nick Malcolm Quartet"
ISRC UK63Q1400002
INDEX 00 07:18:39
FILE "02 - There's Lead in Their Pencils (For ML and JM).wav" WAVE
INDEX 01 00:00:00
TRACK 03 AUDIO
TITLE "Grimes"
PERFORMER "Nick Malcolm Quartet"
ISRC UK63Q1400003
INDEX 00 07:03:73
FILE "03 - Grimes.wav" WAVE
INDEX 01 00:00:00
TRACK 04 AUDIO
TITLE "Improvisation I"
PERFORMER "Nick Malcolm Quartet"
ISRC UK63Q1400004
INDEX 00 08:31:40
FILE "04 - Improvisation I.wav" WAVE
INDEX 01 00:00:00
TRACK 05 AUDIO
TITLE "Views (for HG)"
PERFORMER "Nick Malcolm Quartet"
ISRC UK63Q1400005
INDEX 00 04:04:35
FILE "05 - Views (for HG).wav" WAVE
INDEX 01 00:00:00
TRACK 06 AUDIO
TITLE "A Very Blusterous Day"
PERFORMER "Nick Malcolm Quartet"
ISRC UK63Q1400006
INDEX 00 05:52:04
FILE "06 - A Very Blusterous Day.wav" WAVE
INDEX 01 00:00:00
TRACK 07 AUDIO
TITLE "Improvisation II"
PERFORMER "Nick Malcolm Quartet"
ISRC UK63Q1400007
INDEX 00 08:14:59
FILE "07 - Improvisation II.wav" WAVE
INDEX 01 00:00:00
TRACK 08 AUDIO
TITLE "It's Alright, We're Going to the Zoo (for JAM)"
PERFORMER "Nick Malcolm Quartet"
ISRC UK63Q1400008
INDEX 00 03:34:39
FILE "08 - It's Alright, We're Going to the Zoo (for JAM).wav" WAVE
INDEX 01 00:00:00
TRACK 09 AUDIO
TITLE "Where, Beyond These Voices, There Is Peace"
PERFORMER "Nick Malcolm Quartet"
ISRC UK63Q1400009
INDEX 00 04:23:72
FILE "09 - Where, Beyond These Voices, There Is Peace.wav" WAVE
INDEX 01 00:00:00
По всем вопросам пишите личное сообщение пользователю M0p94ok.
02:38
265
Нет комментариев. Ваш будет первым!