Вы используете незарегистрированную версию компонента "Вкладки"!

Поиск

(free jazz) [cd] Tom Prehn - Tom Prehn Kvartet 1967, FLAC (tracks+.cue), lossless

(free jazz) [cd] Tom Prehn - Tom Prehn Kvartet 1967, FLAC (tracks+.cue), lossless
Треклист:


Tom Prehn - Tom Prehn Kvartet 1967

Жанр: free jazz
Год выпуска: 1967
Издатель (лейбл):2001, Atavistic/ALP221CD
Формат: FLAC (tracks+.cue)
Битрейт аудио: lossless
Продолжительность 35`55
Источник: nnm, mishka1981

tracks

1 F. Eks.
2 Modus Vivendi
3 Forloeb
4 Herfra Til Marathon
5 L'Homme Armé
6 Xenia
7 Det Var En Søndag Morgen


 
.log
Exact Audio Copy V1.0 beta 1 from 15. November 2010
EAC extraction logfile from 20. January 2014, 12:22
Tom Prehn / Tom Prehn Kvartet
Used drive : TSSTcorpCDDVDW TS-L633A Adapter: 3 ID: 0
Read mode : Secure
Utilize accurate stream : Yes
Defeat audio cache : Yes
Make use of C2 pointers : No
Read offset correction : 6
Overread into Lead-In and Lead-Out : No
Fill up missing offset samples with silence : Yes
Delete leading and trailing silent blocks : No
Null samples used in CRC calculations : Yes
Used interface : Installed external ASPI interface
Gap handling : Appended to previous track
Used output format : User Defined Encoder
Selected bitrate : 896 kBit/s
Quality : High
Add ID3 tag : No
Command line compressor : C:\Program Files\Exact Audio Copy\FLAC\FLAC.EXE
Additional command line options : -8 -V -T "ARTIST=%a" -T "TITLE=%t" -T "ALBUM=%g" -T "DATE=%y" -T "TRACKNUMBER=%n" -T "TOTALTRACKS=%x" -T "GENRE=%m" -T "ALBUMARTIST=%v" -T "ALBUM ARTIST=%v" -T "COMMENT=EAC Secure Mode, Test & Copy, AccurateRip, FLAC -8" %s
TOC of the extracted CD
Track | Start | Length | Start sector | End sector
---------------------------------------------------------
1 | 0:00.00 | 3:12.17 | 0 | 14416
2 | 3:12.17 | 2:51.47 | 14417 | 27288
3 | 6:03.64 | 11:02.18 | 27289 | 76956
4 | 17:06.07 | 0:41.21 | 76957 | 80052
5 | 17:47.28 | 6:52.02 | 80053 | 110954
6 | 24:39.30 | 5:19.01 | 110955 | 134880
7 | 29:58.31 | 5:56.42 | 134881 | 161622
Track 1
Filename C:\MY RIPS\01 - F. eks.wav
Pre-gap length 0:00:02.00
Peak level 83.9 %
Extraction speed 1.0 X
Track quality 100.0 %
Test CRC 4A463031
Copy CRC 4A463031
Track not present in AccurateRip database
Copy OK
Track 2
Filename C:\MY RIPS\02 - Modus vivendi.wav
Pre-gap length 0:00:05.31
Peak level 73.0 %
Extraction speed 1.0 X
Track quality 100.0 %
Test CRC E4933B42
Copy CRC E4933B42
Track not present in AccurateRip database
Copy OK
Track 3
Filename C:\MY RIPS\03 - Forloeb.wav
Pre-gap length 0:00:04.64
Peak level 84.1 %
Extraction speed 1.4 X
Track quality 100.0 %
Test CRC 19B6410B
Copy CRC 19B6410B
Track not present in AccurateRip database
Copy OK
Track 4
Filename C:\MY RIPS\04 - Herfra til Marathon.wav
Pre-gap length 0:00:09.15
Peak level 80.5 %
Extraction speed 0.8 X
Track quality 100.0 %
Test CRC 3723D1B2
Copy CRC 3723D1B2
Track not present in AccurateRip database
Copy OK
Track 5
Filename C:\MY RIPS\05 - L'Homme arme.wav
Pre-gap length 0:00:07.56
Peak level 86.1 %
Extraction speed 1.6 X
Track quality 100.0 %
Test CRC 077D39A7
Copy CRC 077D39A7
Track not present in AccurateRip database
Copy OK
Track 6
Filename C:\MY RIPS\06 - Xenia.wav
Pre-gap length 0:00:07.48
Peak level 74.8 %
Extraction speed 1.7 X
Track quality 100.0 %
Test CRC 5DF4BC25
Copy CRC 5DF4BC25
Track not present in AccurateRip database
Copy OK
Track 7
Filename C:\MY RIPS\07 - Det var en sondag morgen.wav
Pre-gap length 0:00:04.26
Peak level 85.0 %
Extraction speed 1.8 X
Track quality 100.0 %
Test CRC 7F9BCC28
Copy CRC 7F9BCC28
Track not present in AccurateRip database
Copy OK
None of the tracks are present in the AccurateRip database
No errors occurred
End of status report
==== Log checksum 7C93E757A80E573D2BD5FA14FBC9E243E55B260530569C5F40DAFC8C6649DBF5 ====
 
.cue
REM GENRE Jazz
REM DATE 1967
REM DISCID 50086A07
REM COMMENT "ExactAudioCopy v1.0b1"
PERFORMER "Tom Prehn"
TITLE "Tom Prehn Kvartet"
FILE "01 - F. eks.wav" WAVE
TRACK 01 AUDIO
TITLE "F. eks"
PERFORMER "Tom Prehn"
INDEX 01 00:00:00
TRACK 02 AUDIO
TITLE "Modus vivendi"
PERFORMER "Tom Prehn"
INDEX 00 03:06:61
FILE "02 - Modus vivendi.wav" WAVE
INDEX 01 00:00:00
TRACK 03 AUDIO
TITLE "Forloeb"
PERFORMER "Tom Prehn"
INDEX 00 02:46:58
FILE "03 - Forloeb.wav" WAVE
INDEX 01 00:00:00
TRACK 04 AUDIO
TITLE "Herfra til Marathon"
PERFORMER "Tom Prehn"
INDEX 00 10:53:03
FILE "04 - Herfra til Marathon.wav" WAVE
INDEX 01 00:00:00
TRACK 05 AUDIO
TITLE "L'Homme arme"
PERFORMER "Tom Prehn"
INDEX 00 00:33:40
FILE "05 - L'Homme arme.wav" WAVE
INDEX 01 00:00:00
TRACK 06 AUDIO
TITLE "Xenia"
PERFORMER "Tom Prehn"
INDEX 00 06:44:29
FILE "06 - Xenia.wav" WAVE
INDEX 01 00:00:00
TRACK 07 AUDIO
TITLE "Det var en sondag morgen"
PERFORMER "Tom Prehn"
INDEX 00 05:14:50
FILE "07 - Det var en sondag morgen.wav" WAVE
INDEX 01 00:00:00

http://www.discogs.com/Tom-Prehn-Quartet-Tom-Prehn-Kvartet/release/2176309
другие релизы
По всем вопросам пишите личное сообщение пользователю M0p94ok.
02:38
224
Нет комментариев. Ваш будет первым!