Вы используете незарегистрированную версию компонента "Вкладки"!

Поиск

(Contemporary Jazz, Avant-Garde Jazz) [CD] Heinz Sauer Quintet - Lost Ends - 1993, FLAC (tracks+.cue), lossless

(Contemporary Jazz, Avant-Garde Jazz) [CD] Heinz Sauer Quintet - Lost Ends - 1993, FLAC (tracks+.cue), lossless
Треклист:
Heinz Sauer Quintet - Lost Ends
Жанр: Contemporary Jazz, Avant-Garde Jazz
Носитель: CD
Страна-производитель диска: Германия
Год издания: 1993
Издатель (лейбл): Free Flow Music
Номер по каталогу: ffm 0594
Аудиокодек: FLAC (*.flac)
Тип рипа: tracks+.cue
Битрейт аудио: lossless
Продолжительность: 50:10
Источник (релизер): iwals
Наличие сканов в содержимом раздачи: да
Треклист:
01. Long Note (Sauer) - 1:01
02. Prologue from Outside (Sauer) - 6:44
03. Floating Circles (Sauer) - 6:58
04. Don't Explain (Holiday) - 2:17
05. A Tail of a B-Tune (Sauer) - 3:23
06. Vom Himmel hoch... (Sauer) - 2:52
07. Tangent A (Sauer) - 0:57
08. Orbital Excursion (Sauer) - 5:07
09. Ocean Drive Talk (Sauer) - 3:11
10. Come Sunday (Ellington) - 2:33
11. Laughing at Dinosaurs (Sauer) - 3:10
12. "Ich bin kein Held, das ist nicht mein Job" (to whom it may concern) (Sauer-Becker-Schmolk-Arguelles) - 1:59
13. Tangent B (Sauer) - 3:58
14. Ruby My Dear (Monk) - 2:27
15. Lost Ends (Sauer) - 1:53
16. Long Note (Sauer) - 1:40
Состав:
Stefan Lottermann - trombone
Markus Becker - piano
Stephan Schmolck - bass
Steve Arguelles - drums
Heinz Sauer - saxophones, synthesizer
Recorded live at Hindemith-Saal, Alte Oper, Frankfurt on January 30, 1993.
 
Лог создания рипа
EAC extraction logfile from 5. February 2006, 20:40 for CD
Heinz Sauer Quintet / Lost Ends
Used drive : _NEC DVD_RW ND-3500AG Adapter: 3 ID: 0
Read mode : Secure with NO C2, accurate stream, disable cache
Read offset correction : 66
Overread into Lead-In and Lead-Out : No
Used output format : Internal WAV Routines
44.100 Hz; 16 Bit; Stereo
Other options :
Fill up missing offset samples with silence : Yes
Delete leading and trailing silent blocks : No
Native Win32 interface for Win NT & 2000
Track 1
Filename J:\Musik\Heinz Sauer Quintet (1993) - Lost Ends\01 - 01-Long Note.wav
Pre-gap length 0:00:02.00
Peak level 5.4 %
Track quality 100.0 %
Test CRC D7362CCD
Copy CRC D7362CCD
Copy OK
Track 2
Filename J:\Musik\Heinz Sauer Quintet (1993) - Lost Ends\02 - 02-Prologue From Outside.wav
Peak level 95.5 %
Track quality 99.9 %
Test CRC 564B6142
Copy CRC 564B6142
Copy OK
Track 3
Filename J:\Musik\Heinz Sauer Quintet (1993) - Lost Ends\03 - 03-Floating circles.wav
Peak level 96.6 %
Track quality 100.0 %
Test CRC 9505D2DD
Copy CRC 9505D2DD
Copy OK
Track 4
Filename J:\Musik\Heinz Sauer Quintet (1993) - Lost Ends\04 - 04-Don't Explain.wav
Peak level 74.5 %
Track quality 100.0 %
Test CRC 99478970
Copy CRC 99478970
Copy OK
Track 5
Filename J:\Musik\Heinz Sauer Quintet (1993) - Lost Ends\05 - 05-A Tail Of A B-Tune.wav
Peak level 81.7 %
Track quality 100.0 %
Test CRC 28FFB548
Copy CRC 28FFB548
Copy OK
Track 6
Filename J:\Musik\Heinz Sauer Quintet (1993) - Lost Ends\06 - 06-Vom Himmel hoch.wav
Peak level 52.6 %
Track quality 100.0 %
Test CRC D9A67007
Copy CRC D9A67007
Copy OK
Track 7
Filename J:\Musik\Heinz Sauer Quintet (1993) - Lost Ends\07 - 07-Tangent A.wav
Peak level 42.9 %
Track quality 99.8 %
Test CRC 8EC70506
Copy CRC 8EC70506
Copy OK
Track 8
Filename J:\Musik\Heinz Sauer Quintet (1993) - Lost Ends\08 - 08- Orbital Excursion.wav
Peak level 49.5 %
Track quality 100.0 %
Test CRC 048ABF1E
Copy CRC 048ABF1E
Copy OK
Track 9
Filename J:\Musik\Heinz Sauer Quintet (1993) - Lost Ends\09 - 09-Ocean Drive Talk.wav
Peak level 78.2 %
Track quality 100.0 %
Test CRC 45D53988
Copy CRC 45D53988
Copy OK
Track 10
Filename J:\Musik\Heinz Sauer Quintet (1993) - Lost Ends\10 - 10-Come Sunday.wav
Peak level 38.1 %
Track quality 100.0 %
Test CRC 56FF1350
Copy CRC 56FF1350
Copy OK
Track 11
Filename J:\Musik\Heinz Sauer Quintet (1993) - Lost Ends\11 - 11-Laughing At Dinosaurs.wav
Peak level 79.6 %
Track quality 100.0 %
Test CRC 8A217B0D
Copy CRC 8A217B0D
Copy OK
Track 12
Filename J:\Musik\Heinz Sauer Quintet (1993) - Lost Ends\12 - 12-'Ich bin kein Held, das ist nicht mein Job'.wav
Peak level 37.5 %
Track quality 99.9 %
Test CRC AC6420E8
Copy CRC AC6420E8
Copy OK
Track 13
Filename J:\Musik\Heinz Sauer Quintet (1993) - Lost Ends\13 - 13-Tangent B.wav
Peak level 78.8 %
Track quality 100.0 %
Test CRC AF187CEF
Copy CRC AF187CEF
Copy OK
Track 14
Filename J:\Musik\Heinz Sauer Quintet (1993) - Lost Ends\14 - 14-Ruby MY Dear.wav
Peak level 42.6 %
Track quality 100.0 %
Test CRC 53DC1BC1
Copy CRC 53DC1BC1
Copy OK
Track 15
Filename J:\Musik\Heinz Sauer Quintet (1993) - Lost Ends\15 - 15-Lost Ends.wav
Peak level 68.4 %
Track quality 100.0 %
Test CRC F414934D
Copy CRC F414934D
Copy OK
Track 16
Filename J:\Musik\Heinz Sauer Quintet (1993) - Lost Ends\16 - 16--Long Note.wav
Peak level 24.7 %
Track quality 100.0 %
Test CRC 8A17C67C
Copy CRC 8A17C67C
Copy OK
No errors occured
End of status report
 
Содержание индексной карты (.CUE)
REM GENRE Jazz
REM DATE 1993
REM DISCID D70BC110
REM COMMENT "ExactAudioCopy v0.95b3"
PERFORMER "Heinz Sauer"
TITLE "Lost Ends"
FILE "01 - Long Note.wav" WAVE
TRACK 01 AUDIO
TITLE "Long Note"
PERFORMER "Heinz Sauer"
INDEX 01 00:00:00
FILE "02 - Prologue from Outside.wav" WAVE
TRACK 02 AUDIO
TITLE "Prologue from Outside"
PERFORMER "Heinz Sauer"
INDEX 01 00:00:00
FILE "03 - Floating Circles.wav" WAVE
TRACK 03 AUDIO
TITLE "Floating Circles"
PERFORMER "Heinz Sauer"
INDEX 01 00:00:00
FILE "04 - Don't Explain.wav" WAVE
TRACK 04 AUDIO
TITLE "Don't Explain"
PERFORMER "Heinz Sauer"
INDEX 01 00:00:00
FILE "05 - A Tail of a B-Tune.wav" WAVE
TRACK 05 AUDIO
TITLE "A Tail of a B-Tune"
PERFORMER "Heinz Sauer"
INDEX 01 00:00:00
FILE "06 - Vom Himmel hoch....wav" WAVE
TRACK 06 AUDIO
TITLE "Vom Himmel hoch..."
PERFORMER "Heinz Sauer"
INDEX 01 00:00:00
FILE "07 - Tangent A.wav" WAVE
TRACK 07 AUDIO
TITLE "Tangent A"
PERFORMER "Heinz Sauer"
INDEX 01 00:00:00
FILE "08 - Orbital Excursion.wav" WAVE
TRACK 08 AUDIO
TITLE "Orbital Excursion"
PERFORMER "Heinz Sauer"
INDEX 01 00:00:00
FILE "09 - Ocean Drive Talk.wav" WAVE
TRACK 09 AUDIO
TITLE "Ocean Drive Talk"
PERFORMER "Heinz Sauer"
INDEX 01 00:00:00
FILE "10 - Come Sunday.wav" WAVE
TRACK 10 AUDIO
TITLE "Come Sunday"
PERFORMER "Heinz Sauer"
INDEX 01 00:00:00
FILE "11 - Laughing at Dinosaurs.wav" WAVE
TRACK 11 AUDIO
TITLE "Laughing at Dinosaurs"
PERFORMER "Heinz Sauer"
INDEX 01 00:00:00
FILE "12 - 'Ich bin kein Held, das ist nicht mein Job' (to whom it may concern).wav" WAVE
TRACK 12 AUDIO
TITLE "'Ich bin kein Held, das ist nicht mein Job' (to whom it may concern)"
PERFORMER "Heinz Sauer"
INDEX 01 00:00:00
FILE "13 - Tangent B.wav" WAVE
TRACK 13 AUDIO
TITLE "Tangent B"
PERFORMER "Heinz Sauer"
INDEX 01 00:00:00
FILE "14 - Ruby My Dear.wav" WAVE
TRACK 14 AUDIO
TITLE "Ruby My Dear"
PERFORMER "Heinz Sauer"
INDEX 01 00:00:00
FILE "15 - Lost Ends.wav" WAVE
TRACK 15 AUDIO
TITLE "Lost Ends"
PERFORMER "Heinz Sauer"
INDEX 01 00:00:00
FILE "16 - Long Note.wav" WAVE
TRACK 16 AUDIO
TITLE "Long Note"
PERFORMER "Heinz Sauer"
INDEX 01 00:00:00
 
Отчет CUETools
[CUETools log; Date: 09.06.2014 14:39:41; Version: 2.1.4]
[CTDB TOCID: N8KAGjk0amMj_yq56uhZ9B1QQbM-] disk not present in database.
[AccurateRip ID: 00207b0d-017d0b43-d70bc110] found.
Track [ CRC | V2 ] Status
01 [2d83fd0b|3470695b] (0+0/6) No match
02 [cc3f212e|701aa462] (0+0/6) No match
03 [02b86159|c7585632] (0+0/6) No match
04 [156cb2bc|dc73bcbf] (0+0/6) No match
05 [e9b15e53|bc81f867] (0+0/6) No match
06 [4d2d39f8|1023d89a] (0+0/6) No match
07 [5e4f7682|b3a9f1fd] (0+0/6) No match
08 [3ef1b264|ebe5c22f] (0+0/6) No match
09 [4d24d254|81ec3caa] (0+0/6) No match
10 [7f6c4f47|7411cb74] (0+0/6) No match
11 [5ad1a497|a9330817] (0+0/6) No match
12 [df1f2e64|710c235c] (0+0/6) No match
13 [a5c0fa82|e7e3b21c] (0+0/6) No match
14 [f262f737|1968f279] (0+0/6) No match
15 [44dd6465|dc56a5d8] (0+0/6) No match
16 [b7622675|fd120dc0] (0+0/6) No match
Offsetted by -18:
01 [26c7320f] (0/6) No match (V2 was not tested)
02 [b4e7268c] (0/6) No match (V2 was not tested)
03 [8c808426] (0/6) No match (V2 was not tested)
04 [4a060fe9] (0/6) No match (V2 was not tested)
05 [4f77546d] (0/6) No match (V2 was not tested)
06 [8e190d70] (0/6) No match (V2 was not tested)
07 [c61b36f4] (0/6) No match (V2 was not tested)
08 [f9e3fa7b] (0/6) No match (V2 was not tested)
09 [59b9392a] (0/6) No match (V2 was not tested)
10 [353d4269] (0/6) No match (V2 was not tested)
11 [346bcad6] (0/6) No match (V2 was not tested)
12 [c4a91abc] (0/6) No match (V2 was not tested)
13 [f59f1644] (0/6) No match (V2 was not tested)
14 [3905c4da] (0/6) No match (V2 was not tested)
15 [043b3787] (0/6) No match (V2 was not tested)
16 [96f14f3b] (0/6) No match (V2 was not tested)
Track Peak [ CRC32 ] [W/O NULL]
-- 96,6 [96A882DA] [D48FE8E3]
01 5,4 [D7362CCD] [DC8442DA]
02 95,5 [564B6142] [9A92761D]
03 96,6 [9505D2DD] [C898298B]
04 74,5 [99478970] [77BC97B4]
05 81,7 [28FFB548] [37DC5F48]
06 52,6 [D9A67007] [443C95C1]
07 42,9 [8EC70506] [C876DE78]
08 49,5 [048ABF1E] [B03021DF]
09 78,2 [45D53988] [30AE2B01]
10 38,1 [56FF1350] [BDEDFD87]
11 79,6 [8A217B0D] [40A37513]
12 37,5 [AC6420E8] [9CE2E5A6]
13 78,8 [AF187CEF] [0FE4435D]
14 42,6 [53DC1BC1] [BE854767]
15 68,4 [F414934D] [74146D51]
16 24,7 [8A17C67C] [7CA98734]
По всем вопросам пишите личное сообщение пользователю M0p94ok.
02:37
188
Нет комментариев. Ваш будет первым!