Вы используете незарегистрированную версию компонента "Вкладки"!

Поиск

(Avant-Garde Jazz, Free Jazz) [CD] Roy Brooks & the Artistic Truth - Black Survival: The Sahel Concert at Town Hall - 1973 (2012), FLAC (tracks+.cue), lossless

(Avant-Garde Jazz, Free Jazz) [CD] Roy Brooks & the Artistic Truth - Black Survival: The Sahel Concert at Town Hall - 1973 (2012), FLAC (tracks+.cue), lossless
Треклист:
Roy Brooks & the Artistic Truth - Black Survival: The Sahel Concert at Town Hall
Жанр: Avant-Garde Jazz, Free Jazz
Носитель: CD
Страна-производитель диска: Великобритания
Год издания: 2012
Издатель (лейбл): Universal Sound
Номер по каталогу: US CD45
Страна: США
Аудиокодек: FLAC (*.flac)
Тип рипа: tracks+.cue
Битрейт аудио: lossless
Продолжительность: 29:13
Источник (релизер): benerhos (what)
Наличие сканов в содержимом раздачи: нет
Треклист:
01. Black Survival - 5:04
02. Black Survival - Here and Now - 4:09
03. Sahel - 7:30
04. Relief - 10:15
05. Black Survival - Prologue - 2:15
Состав:
Roy Brooks - drums
Joe Bonner - piano
Reggie Workman - bass
Cecil Bridgewater - trumpet
Sonny Fortune - alto saxophone
Lawrence Williams - congas
John Stubblefield - oboe
Dee Dee Bridgewater, Jordora Marshall - vocals
Recorded live at Town Hall on December 31, 1973.
 
Лог создания рипа
Exact Audio Copy V1.0 beta 3 from 29. August 2011
EAC extraction logfile from 25. January 2013, 14:45
Roy Brooks & The Artistic Truth / Black Survival
Used drive : HL-DT-STDVD-RAM GH22NP20 Adapter: 0 ID: 0
Read mode : Secure
Utilize accurate stream : Yes
Defeat audio cache : Yes
Make use of C2 pointers : No
Read offset correction : 102
Overread into Lead-In and Lead-Out : No
Fill up missing offset samples with silence : Yes
Delete leading and trailing silent blocks : No
Null samples used in CRC calculations : Yes
Used interface : Native Win32 interface for Win NT & 2000
Gap handling : Appended to previous track
Used output format : User Defined Encoder
Selected bitrate : 1024 kBit/s
Quality : High
Add ID3 tag : No
Command line compressor : C:\Program Files (x86)\Exact Audio Copy\FLAC\FLAC.EXE
Additional command line options : -8 -V -T "ARTIST=%artist%" -T "TITLE=%title%" -T "ALBUM=%albumtitle%" -T "DATE=%year%" -T "TRACKNUMBER=%tracknr%" -T "GENRE=%genre%" -T "PERFORMER=%albuminterpret%" -T "COMPOSER=%composer%" %haslyrics%--tag-from-file=LYRICS="%lyricsfile%"%haslyrics% -T "ALBUMARTIST=%albumartist%" -T "DISCNUMBER=%cdnumber%" -T "TOTALDISCS=%totalcds%" -T "TOTALTRACKS=%numtracks%" -T "COMMENT=%comment%" %source% -o %dest%
TOC of the extracted CD
Track | Start | Length | Start sector | End sector
---------------------------------------------------------
1 | 0:00.00 | 5:04.00 | 0 | 22799
2 | 5:04.00 | 4:09.35 | 22800 | 41509
3 | 9:13.35 | 7:30.14 | 41510 | 75273
4 | 16:43.49 | 10:14.71 | 75274 | 121394
5 | 26:58.45 | 2:15.06 | 121395 | 131525
Track 1
Filename C:\Program Files\EAC\Roy Brooks & The Artistic Truth\Black Survival\01 - Black Survival.wav
Pre-gap length 0:00:02.00
Peak level 90.8 %
Extraction speed 1.6 X
Track quality 100.0 %
Test CRC B6F2383D
Copy CRC B6F2383D
Track not present in AccurateRip database
Copy OK
Track 2
Filename C:\Program Files\EAC\Roy Brooks & The Artistic Truth\Black Survival\02 - Here And Now.wav
Peak level 90.3 %
Extraction speed 1.8 X
Track quality 100.0 %
Test CRC E4B6BD72
Copy CRC E4B6BD72
Track not present in AccurateRip database
Copy OK
Track 3
Filename C:\Program Files\EAC\Roy Brooks & The Artistic Truth\Black Survival\03 - Sahel.wav
Peak level 89.6 %
Extraction speed 2.0 X
Track quality 99.9 %
Test CRC 054D6C40
Copy CRC 054D6C40
Track not present in AccurateRip database
Copy OK
Track 4
Filename C:\Program Files\EAC\Roy Brooks & The Artistic Truth\Black Survival\04 - Relief.wav
Pre-gap length 0:00:00.69
Peak level 93.9 %
Extraction speed 2.5 X
Track quality 100.0 %
Test CRC 421FF840
Copy CRC 421FF840
Track not present in AccurateRip database
Copy OK
Track 5
Filename C:\Program Files\EAC\Roy Brooks & The Artistic Truth\Black Survival\05 - Prologue.wav
Peak level 92.1 %
Extraction speed 2.2 X
Track quality 100.0 %
Test CRC D97B8407
Copy CRC D97B8407
Track not present in AccurateRip database
Copy OK
None of the tracks are present in the AccurateRip database
No errors occurred
End of status report
==== Log checksum 03FDB1A17D4730B0EA0D91255C10DEA040B6F61620AB0E5249589AF61C83F632 ====
 
Содержание индексной карты (.CUE)
REM GENRE Jazz
REM DATE 1973
REM DISCID 2906D905
REM COMMENT "ExactAudioCopy v1.0b3"
PERFORMER "Roy Brooks & the Artistic Truth"
TITLE "Black Survival"
FILE "01 - Black Survival.wav" WAVE
TRACK 01 AUDIO
TITLE "Black Survival"
PERFORMER "Roy Brooks & the Artistic Truth"
ISRC GBBCK7700307
INDEX 01 00:00:00
FILE "02 - Black Survival - Here and Now.wav" WAVE
TRACK 02 AUDIO
TITLE "Black Survival - Here and Now"
PERFORMER "Roy Brooks & the Artistic Truth"
ISRC GBBCK7700308
INDEX 01 00:00:00
FILE "03 - Sahel.wav" WAVE
TRACK 03 AUDIO
TITLE "Sahel"
PERFORMER "Roy Brooks & the Artistic Truth"
ISRC GBBCK7700309
INDEX 01 00:00:00
TRACK 04 AUDIO
TITLE "Relief"
PERFORMER "Roy Brooks & the Artistic Truth"
ISRC GBBCK7700310
INDEX 00 07:29:20
FILE "04 - Relief.wav" WAVE
INDEX 01 00:00:00
FILE "05 - Black Survival - Prologue.wav" WAVE
TRACK 05 AUDIO
TITLE "Black Survival - Prologue"
PERFORMER "Roy Brooks & the Artistic Truth"
ISRC GBBCK7700311
INDEX 01 00:00:00
 
Отчет CUETools
[CUETools log; Date: 09.06.2014 14:13:46; Version: 2.1.4]
[CTDB TOCID: H81.QZJ97g5XhWTebMHpdlWaXBA-] found.
Track | CTDB Status
1 | (1/1) Accurately ripped
2 | (1/1) Accurately ripped
3 | (1/1) Accurately ripped
4 | (1/1) Accurately ripped
5 | (1/1) Accurately ripped
[AccurateRip ID: 0005fd39-001c7e5e-2906d905] found.
Track [ CRC | V2 ] Status
01 [ef5d16e3|17995f90] (1+0/1) Accurately ripped
02 [b5231c7a|0c1a23e5] (1+0/1) Accurately ripped
03 [fcf8bde6|dc44abf7] (1+0/1) Accurately ripped
04 [58526674|c9b9732f] (1+0/1) Accurately ripped
05 [7860a7c4|39133408] (1+0/1) Accurately ripped
Track Peak [ CRC32 ] [W/O NULL] [ LOG ]
-- 93,9 [598AE2B2] [300DA3EE]
01 90,8 [B6F2383D] [C742C92C] CRC32
02 90,3 [E4B6BD72] [067B8074] CRC32
03 89,6 [054D6C40] [B827252A] CRC32
04 93,9 [421FF840] [612872A5] CRC32
05 92,1 [D97B8407] [E48D2D08] CRC32
 
Об альбоме (сборнике)
Roy Brooks and the Artistic Truth’s Black Survival album is a true holy-grail for deep and spritual jazz collectors around the world.
Black Survival is reissued here, digitally remastered and cased in bespoke original artwork exact reproduction on hardboard Jap-style box case CD and a very limited (1000 worldwide) heavyweight US-made heavy board gatefold vinyl edition.
This album was originally independently released to raise funds to combat the ongoing drought in the Sahel region of Africa (an area covering parts of Senegal, Mali, Burkina Faso, Nigeria, Chad, Darfur, Sudan and Ethiopia).
In his long and distinguished career, the legendary Detroit-born drummer Brooks played with everyone from Yusef Lateef, Pharoah Sanders, Max Roach, Charles Mingus. From 1959-64 he was in the Horace Silver Quintet performing on classic Blue Note albums such as Song For My Father.
During his lifetime Brooks released precious few solo albums. His debut, ‘Beat’, was released in 1963 on Motown’s then new off-shoot jazz label Jazz Workshop. His connection with his hometown label dated back to his time working with The Four Tops
In 1972, Brooks formed the Artistic Truth. ‘Black Survival’, the Sahel Concert at the Town Hall was originally released on the small independent Im-Hotep Records in Harlem in 1974 (which also released Brook’s earlier Ethnic Expressions).
After many years on the New York jazz scene, Brooks returned to Detroit in 1975, where he continued to perform with the Artistic Truth as well as forming the collective Musicians United to Save Indigenous Culture (MUSIC) along with Strata founder Kenny Cox and members of the Tribe collective, Wendell Harrison and Harold McKinney.
По всем вопросам пишите личное сообщение пользователю M0p94ok.
02:37
193
Нет комментариев. Ваш будет первым!