Вы используете незарегистрированную версию компонента "Вкладки"!

Поиск

(Avant-Garde Jazz, Free Jazz) [CD] Roy Brooks and the Artistic Truth - Ethnic Expressions - 1973 (2009 Japan Edition), FLAC (tracks+.cue), lossless

(Avant-Garde Jazz, Free Jazz) [CD] Roy Brooks and the Artistic Truth - Ethnic Expressions - 1973 (2009 Japan Edition), FLAC (tracks+.cue), lossless
Треклист:
Roy Brooks and the Artistic Truth - Ethnic Expressions
Жанр: Avant-Garde Jazz, Free Jazz
Носитель: CD
Страна-производитель диска: Япония
Год издания: 2009
Издатель (лейбл): P-Vine Records
Номер по каталогу: PCD-93298
Страна: США
Аудиокодек: FLAC (*.flac)
Тип рипа: tracks+.cue
Битрейт аудио: lossless
Продолжительность: 48:45
Источник (релизер): stoichie (what)
Наличие сканов в содержимом раздачи: да
Треклист:
01. M'Jumbe (Brooks) - 16:04
02. The Last Prophet (Brooks) - 8:14
03. The Smart Set (Jefferson-Brooks) - 5:54
04. Eboness (Walquer-Brooks) - 5:33
05. Eboness (Kwanza) (Brooks) - 13:00
Состав:
Roy Brooks - drums, percussion
Eddie Jefferson - vocals
Black Rose - ethnic expressionist
Olu Dara - trumpet, e-flat horn
Cecil Bridgewater - trumpet, flugelhorn
Sonny Fortune - alto saxophone, flute
John Stubblefield - tenor saxophone, flute, bass clarinet
Hamiet Bluiett - baritone saxophone, clarinet
Joseph Bonner - acoustic piano
Hilton Ruiz - piano (Fender Rhodes)
Reggie Workman - bass
Richard Landrum, Lawrence Williams - african percussion
Recorded at Small's Paradise, Harlem, New York on November 22, 1973.
 
Лог создания рипа
Exact Audio Copy V1.0 beta 3 from 29. August 2011
EAC extraction logfile from 29. June 2013, 17:14
Roy Brooks And The Artistic Truth / Ethnic Expressions
Used drive : HL-DT-STDVDRAM GT51N Adapter: 0 ID: 1
Read mode : Secure
Utilize accurate stream : Yes
Defeat audio cache : Yes
Make use of C2 pointers : No
Read offset correction : 103
Overread into Lead-In and Lead-Out : No
Fill up missing offset samples with silence : Yes
Delete leading and trailing silent blocks : No
Null samples used in CRC calculations : Yes
Used interface : Native Win32 interface for Win NT & 2000
Gap handling : Appended to previous track
Used output format : User Defined Encoder
Selected bitrate : 1024 kBit/s
Quality : High
Add ID3 tag : No
Command line compressor : C:\Program Files (x86)\FLAC\flac.exe
Additional command line options : -8 -V -T "ARTIST=%artist%" -T "TITLE=%title%" -T "ALBUM=%albumtitle%" -T "DATE=%year%" -T "TRACKNUMBER=%tracknr%" -T "GENRE=%genre%" -T "PERFORMER=%albuminterpret%" -T "COMPOSER=%composer%" %haslyrics%--tag-from-file=LYRICS="%lyricsfile%"%haslyrics% -T "ALBUMARTIST=%albumartist%" -T "DISCNUMBER=%cdnumber%" -T "TOTALDISCS=%totalcds%" -T "TOTALTRACKS=%numtracks%" -T "COMMENT=%comment%" %source% -o %dest%
TOC of the extracted CD
Track | Start | Length | Start sector | End sector
---------------------------------------------------------
1 | 0:00.00 | 16:03.51 | 0 | 72275
2 | 16:03.51 | 8:13.64 | 72276 | 109314
3 | 24:17.40 | 5:53.57 | 109315 | 135846
4 | 30:11.22 | 5:33.29 | 135847 | 160850
5 | 35:44.51 | 13:00.31 | 160851 | 219381
Track 1
Filename C:\EAC Rips\Roy Brooks And The Artistic Truth - Ethnic Expressions (1973) {RM, RE, Pap, PCD-93298}\01 M'Jumbe.wav
Pre-gap length 0:00:02.00
Peak level 99.8 %
Extraction speed 3.6 X
Track quality 100.0 %
Test CRC 14EBFF99
Copy CRC 14EBFF99
Cannot be verified as accurate (confidence 2) [3617ABEC], AccurateRip returned [CB290875] (AR v2)
Copy OK
Track 2
Filename C:\EAC Rips\Roy Brooks And The Artistic Truth - Ethnic Expressions (1973) {RM, RE, Pap, PCD-93298}\02 The Last Prophet.wav
Peak level 99.8 %
Extraction speed 4.3 X
Track quality 100.0 %
Test CRC 4F94462F
Copy CRC 4F94462F
Cannot be verified as accurate (confidence 2) [4C23954C], AccurateRip returned [D558091D] (AR v2)
Copy OK
Track 3
Filename C:\EAC Rips\Roy Brooks And The Artistic Truth - Ethnic Expressions (1973) {RM, RE, Pap, PCD-93298}\03 The Smart Set.wav
Pre-gap length 0:00:02.02
Peak level 99.8 %
Extraction speed 4.5 X
Track quality 100.0 %
Test CRC 34AB5580
Copy CRC 34AB5580
Cannot be verified as accurate (confidence 2) [4ADD8369], AccurateRip returned [0C33199C] (AR v2)
Copy OK
Track 4
Filename C:\EAC Rips\Roy Brooks And The Artistic Truth - Ethnic Expressions (1973) {RM, RE, Pap, PCD-93298}\04 Eboness.wav
Pre-gap length 0:00:02.56
Peak level 99.8 %
Extraction speed 4.8 X
Track quality 100.0 %
Test CRC 10914641
Copy CRC 10914641
Cannot be verified as accurate (confidence 2) [56B67AB5], AccurateRip returned [5F5209C2] (AR v2)
Copy OK
Track 5
Filename C:\EAC Rips\Roy Brooks And The Artistic Truth - Ethnic Expressions (1973) {RM, RE, Pap, PCD-93298}\05 Eboness (Kwanza).wav
Peak level 99.8 %
Extraction speed 5.5 X
Track quality 100.0 %
Test CRC FA76B85D
Copy CRC FA76B85D
Cannot be verified as accurate (confidence 2) [64943C33], AccurateRip returned [BDFDFE6B] (AR v2)
Copy OK
No tracks could be verified as accurate
You may have a different pressing from the one(s) in the database
No errors occurred
End of status report
---- CUETools DB Plugin V2.1.3
[CTDB TOCID: PULmYSBdrF3CrFI.Jvrv8EVEdic-] found, Submit result: PULmYSBdrF3CrFI.Jvrv8EVEdic- has been confirmed
[f89cc12e] (1/1) Accurately ripped
==== Log checksum 76475DB1B371124C396EEE4941EC1733BFE54490A12AE5D207A9548BDE15774E ====
 
Содержание индексной карты (.CUE)
REM GENRE Jazz
REM DATE 1973
REM DISCID 430B6D05
REM COMMENT "ExactAudioCopy v1.0b3"
CATALOG 4995879932988
PERFORMER "Roy Brooks and the Artistic Truth"
TITLE "Ethnic Expressions"
FILE "01 - M'Jumbe.wav" WAVE
TRACK 01 AUDIO
TITLE "M'Jumbe"
PERFORMER "Roy Brooks and the Artistic Truth"
INDEX 01 00:00:00
FILE "02 - The Last Prophet.wav" WAVE
TRACK 02 AUDIO
TITLE "The Last Prophet"
PERFORMER "Roy Brooks and the Artistic Truth"
INDEX 01 00:00:00
TRACK 03 AUDIO
TITLE "The Smart Set"
PERFORMER "Roy Brooks and the Artistic Truth"
INDEX 00 08:11:62
FILE "03 - The Smart Set.wav" WAVE
INDEX 01 00:00:00
TRACK 04 AUDIO
TITLE "Eboness"
PERFORMER "Roy Brooks and the Artistic Truth"
INDEX 00 05:51:15
FILE "04 - Eboness.wav" WAVE
INDEX 01 00:00:00
FILE "05 - Eboness (Kwanza).wav" WAVE
TRACK 05 AUDIO
TITLE "Eboness (Kwanza)"
PERFORMER "Roy Brooks and the Artistic Truth"
INDEX 01 00:00:00
 
Отчет CUETools
[CUETools log; Date: 09.06.2014 13:35:46; Version: 2.1.4]
[CTDB TOCID: PULmYSBdrF3CrFI.Jvrv8EVEdic-] found.
Track | CTDB Status
1 | (3/3) Accurately ripped
2 | (3/3) Accurately ripped
3 | (3/3) Accurately ripped
4 | (3/3) Accurately ripped
5 | (3/3) Accurately ripped
[AccurateRip ID: 000aa547-002fdbb1-430b6d05] found.
Track [ CRC | V2 ] Status
01 [b42859f7|3617abec] (0+0/3) No match
02 [7c6b9a10|4c23954c] (0+0/3) No match
03 [0a489bdf|4add8369] (0+0/3) No match
04 [c847fead|56b67ab5] (0+0/3) No match
05 [74ee98f3|64943c33] (0+0/3) No match
Offsetted by -688:
01 [cb290875] (3/3) Accurately ripped
02 [d558091d] (3/3) Accurately ripped
03 [0c33199c] (3/3) Accurately ripped
04 [5f5209c2] (3/3) Accurately ripped
05 [bdfdfe6b] (3/3) Accurately ripped
Track Peak [ CRC32 ] [W/O NULL] [ LOG ]
-- 99,8 [BDDA50CF] [FFE15A50]
01 99,8 [14EBFF99] [BC82CFCA] CRC32
02 99,8 [4F94462F] [112BF21D] CRC32
03 99,8 [34AB5580] [C3816A56] CRC32
04 99,8 [10914641] [E80F3F08] CRC32
05 99,8 [FA76B85D] [BCAA3126] CRC32
 
Review by Thom Jurek
Ethnic Expressions by Roy Brooks & the Artistic Truth is one of two recordings drum master Roy Brooks cut for the tiny Afrocentric New York imprint Im-Hotep. Released in 1973, it has been one of the most sought-after "Holy Grail" recordings on the collector's market, with copies selling at auction for over $1,200. The reason is not merely its rarity, but the stellar quality of its music and the focus of its vision reinventing the unity of African-American self-determination through music. Recording at Small's Paradise in Harlem on the tenth anniversary of the assassination of John F. Kennedy, this large collective of musicians created a positive, musically sophisticated, emotionally powerful performance that epitomized 1970s jazz as it incorporated the free, progressive, and spiritual jazz elements of the 1960s in a setting that also included soul and blues expression. The personnel includes Brooks on drums and percussion; Olu Dara and Cecil Bridgewater on trumpets and flügelhorn; Hamiet Bluiett, Sonny Fortune, and John Stubblefield on saxophones, flute, and bass clarinets; pianists Joe Bonner (acoustic) and Hilton Ruiz (Rhodes); bassist Reggie Workman; and Richard Landrum and Lawrence Williams on African percussion. Vocalist Eddie Jefferson also appears on the "The Smart Set" and "Eboness," at his most expressive and soulful. The album's five tracks include two longer pieces in "M'Jumbe" (whose arrangement reflects the time Brooks spent with Charles Mingus a year earlier) and the closing "Eboness (Kwanza)," as well as three middle-length pieces
The 16-minute "M'Jumbe" begins in a free call and response between trumpet, percussion, and bowed bass, gradually adding more instruments until its groove emerges at two minutes and its melody unfolds near the three-minute mark. Even as the horn sections quote the theme, improvisation moves in and out, funky themes are introduced with another melodic statement, and brief moments of free playing slip through before formal solos are taken. The tune is always circular due to its impeccably preeminent rhythmic elements. "The Last Prophet" showcases the band's groove side with stellar piano work from Bonner and a horn section in full swagger. The interplay between Workman and Brooks is magical. Jefferson's hip R&B roots are brought into play on the finger-popping "The Smart Set" and his blues authority on "Eboness," with some deep soul work from Workman and Ruiz as well as a fine flute solo from Fortune. On "Eboness (Kwanza)," the vocalist referred to as "Black Rose" is Dee Dee Bridgewater. This is a bona fide jazz classic; its importance as an example of the best that jazz had to offer in the 1970s cannot be overstated. [Ethnic Expressions slipped out of print in 1975, and remained out of print until Japan's P-Vine made it available for a limited time on CD in 2009. In 2010, however, Great Britain's Jazzman was able to license and reissue it on both CD and LP, making it widely available and affordable worldwide.]
По всем вопросам пишите личное сообщение пользователю M0p94ok.
02:36
193
Нет комментариев. Ваш будет первым!