Вы используете незарегистрированную версию компонента "Вкладки"!

Поиск

(free improvisation) [cd] Tyshawn Sorey - Oblique - I (2011), FLAC (tracks+.cue), lossless

(free improvisation) [cd] Tyshawn Sorey - Oblique - I (2011), FLAC (tracks+.cue), lossless
Треклист:


Tyshawn Sorey - Oblique - I (2011)

Жанр: free improvisation
Год выпуска: 2011
Издатель (лейбл): Pi Recordings / PI40
Формат: FLAC (tracks+.cue)
Битрейт аудио: lossless
Продолжительность 1`16`33
Источник: what.cd, hayamate
Acoustic Guitar, Electric Guitar – Todd Neufeld
Alto Saxophone – Loren Stillman
Bass – Chris Tordini
Drums, Composed By, Liner Notes, Producer – Tyshawn Sorey
Piano, Electric Piano [Fender Rhodes] – Jon Escreet*

tracks
1 Twenty 7:25
2 Eight 3:40
3 Thirty-Five 10:57
4 Eighteen 4:50
5 Forty 6:01
6 Twenty-Four 6:52
7 Seventeen 8:47
8 Twenty-Five 8:58
9 Fifteen 12:03
10 Thirty-Six 6:56


 
.log
X Lossless Decoder version 20120609 (141.0)
XLD extraction logfile from 2012-08-18 15:31:41 -0400
Tyshawn Sorey / Oblique - I
Used drive : MATSHITA DVD-R UJ-898 (revision HE13)
Ripper mode : XLD Secure Ripper
Disable audio cache : OK for the drive with a cache less than 1375KiB
Make use of C2 pointers : NO
Read offset correction : 102
Max retry count : 20
Gap status : Analyzed, Appended (except HTOA)
TOC of the extracted CD
Track | Start | Length | Start sector | End sector
---------------------------------------------------------
1 | 00:00:00 | 07:25:21 | 0 | 33395
2 | 07:25:21 | 03:40:17 | 33396 | 49912
3 | 11:05:38 | 10:57:63 | 49913 | 99250
4 | 22:03:26 | 04:50:10 | 99251 | 121010
5 | 26:53:36 | 06:01:11 | 121011 | 148096
6 | 32:54:47 | 06:52:48 | 148097 | 179044
7 | 39:47:20 | 08:47:01 | 179045 | 218570
8 | 48:34:21 | 08:58:47 | 218571 | 258967
9 | 57:32:68 | 12:03:52 | 258968 | 313244
10 | 69:36:45 | 06:56:32 | 313245 | 344476
AccurateRip Summary
Disc not found in AccurateRip DB.
All Tracks
Album gain : -4.56 dB
Peak : 0.964294
Statistics
Read error : 0
Jitter error (maybe fixed) : 0
Retry sector count : 0
Damaged sector count : 0
Track 01
Filename : /Users/erwinfigueroa/Transmission/Uploaded/Tyshawn Sorey - Oblique - I (2011) [FLAC]/01 Twenty.flac
Pre-gap length : 00:02:00
Track gain : -5.44 dB
Peak : 0.950287
CRC32 hash (test run) : 394E3A1D
CRC32 hash : 394E3A1D
CRC32 hash (skip zero) : 8695EF26
AccurateRip v1 signature : DBA8D504
AccurateRip v2 signature : B10FE034
->Track not present in AccurateRip database.
Statistics
Read error : 0
Jitter error (maybe fixed) : 0
Retry sector count : 0
Damaged sector count : 0
Track 02
Filename : /Users/erwinfigueroa/Transmission/Uploaded/Tyshawn Sorey - Oblique - I (2011) [FLAC]/02 Eight.flac
Pre-gap length : 00:02:00
Track gain : -2.86 dB
Peak : 0.944214
CRC32 hash (test run) : 75442D36
CRC32 hash : 75442D36
CRC32 hash (skip zero) : 46DE67C8
AccurateRip v1 signature : 4874F96C
AccurateRip v2 signature : F78334C7
->Track not present in AccurateRip database.
Statistics
Read error : 0
Jitter error (maybe fixed) : 0
Retry sector count : 0
Damaged sector count : 0
Track 03
Filename : /Users/erwinfigueroa/Transmission/Uploaded/Tyshawn Sorey - Oblique - I (2011) [FLAC]/03 Thirty-Five.flac
Pre-gap length : 00:02:00
Track gain : -3.86 dB
Peak : 0.946320
CRC32 hash (test run) : D3EC5C5F
CRC32 hash : D3EC5C5F
CRC32 hash (skip zero) : D61D3A91
AccurateRip v1 signature : 168887A2
AccurateRip v2 signature : A39DB463
->Track not present in AccurateRip database.
Statistics
Read error : 0
Jitter error (maybe fixed) : 0
Retry sector count : 0
Damaged sector count : 0
Track 04
Filename : /Users/erwinfigueroa/Transmission/Uploaded/Tyshawn Sorey - Oblique - I (2011) [FLAC]/04 Eighteen.flac
Pre-gap length : 00:02:00
Track gain : -2.92 dB
Peak : 0.594604
CRC32 hash (test run) : 20BD76C7
CRC32 hash : 20BD76C7
CRC32 hash (skip zero) : 50477A32
AccurateRip v1 signature : 147E49B0
AccurateRip v2 signature : DEB012DF
->Track not present in AccurateRip database.
Statistics
Read error : 0
Jitter error (maybe fixed) : 0
Retry sector count : 0
Damaged sector count : 0
Track 05
Filename : /Users/erwinfigueroa/Transmission/Uploaded/Tyshawn Sorey - Oblique - I (2011) [FLAC]/05 Forty.flac
Pre-gap length : 00:01:74
Track gain : -4.86 dB
Peak : 0.964294
CRC32 hash (test run) : DF2DA688
CRC32 hash : DF2DA688
CRC32 hash (skip zero) : 113E1D80
AccurateRip v1 signature : 4423A9B0
AccurateRip v2 signature : 08340606
->Track not present in AccurateRip database.
Statistics
Read error : 0
Jitter error (maybe fixed) : 0
Retry sector count : 0
Damaged sector count : 0
Track 06
Filename : /Users/erwinfigueroa/Transmission/Uploaded/Tyshawn Sorey - Oblique - I (2011) [FLAC]/06 Twenty-Four.flac
Pre-gap length : 00:01:74
Track gain : -3.64 dB
Peak : 0.944183
CRC32 hash (test run) : BD7ACBBB
CRC32 hash : BD7ACBBB
CRC32 hash (skip zero) : 6FED70C5
AccurateRip v1 signature : 78F3DEC2
AccurateRip v2 signature : A84D36BF
->Track not present in AccurateRip database.
Statistics
Read error : 0
Jitter error (maybe fixed) : 0
Retry sector count : 0
Damaged sector count : 0
Track 07
Filename : /Users/erwinfigueroa/Transmission/Uploaded/Tyshawn Sorey - Oblique - I (2011) [FLAC]/07 Seventeen.flac
Pre-gap length : 00:00:73
Track gain : -3.38 dB
Peak : 0.962738
CRC32 hash (test run) : 0173B800
CRC32 hash : 0173B800
CRC32 hash (skip zero) : F8C7DE9F
AccurateRip v1 signature : 55000C6A
AccurateRip v2 signature : EDD2660B
->Track not present in AccurateRip database.
Statistics
Read error : 0
Jitter error (maybe fixed) : 0
Retry sector count : 0
Damaged sector count : 0
Track 08
Filename : /Users/erwinfigueroa/Transmission/Uploaded/Tyshawn Sorey - Oblique - I (2011) [FLAC]/08 Twenty-Five.flac
Pre-gap length : 00:00:71
Track gain : -0.25 dB
Peak : 0.836121
CRC32 hash (test run) : DDF787A4
CRC32 hash : DDF787A4
CRC32 hash (skip zero) : FA14653C
AccurateRip v1 signature : B0FBCDFF
AccurateRip v2 signature : EE2D1BCA
->Track not present in AccurateRip database.
Statistics
Read error : 0
Jitter error (maybe fixed) : 0
Retry sector count : 0
Damaged sector count : 0
Track 09
Filename : /Users/erwinfigueroa/Transmission/Uploaded/Tyshawn Sorey - Oblique - I (2011) [FLAC]/09 Fifteen.flac
Pre-gap length : 00:01:74
Track gain : -5.84 dB
Peak : 0.953094
CRC32 hash (test run) : C6BD4C7C
CRC32 hash : C6BD4C7C
CRC32 hash (skip zero) : 2352546E
AccurateRip v1 signature : 68C82FA0
AccurateRip v2 signature : E57170DF
->Track not present in AccurateRip database.
Statistics
Read error : 0
Jitter error (maybe fixed) : 0
Retry sector count : 0
Damaged sector count : 0
Track 10
Filename : /Users/erwinfigueroa/Transmission/Uploaded/Tyshawn Sorey - Oblique - I (2011) [FLAC]/10 Thirty-Six.flac
Pre-gap length : 00:00:44
Track gain : -2.09 dB
Peak : 0.944061
CRC32 hash (test run) : B9322EA6
CRC32 hash : B9322EA6
CRC32 hash (skip zero) : DEC901A0
AccurateRip v1 signature : 161713C2
AccurateRip v2 signature : AA9D5791
->Track not present in AccurateRip database.
Statistics
Read error : 0
Jitter error (maybe fixed) : 0
Retry sector count : 0
Damaged sector count : 0
No errors occurred
End of status report
 
.cue
TITLE "Oblique - I"
PERFORMER "Tyshawn Sorey"
REM GENRE "Jazz"
REM DATE "2011"
REM DISCNUMBER 1
REM TOTALDISCS 1
REM DISCID 9F11F10A
REM REPLAYGAIN_ALBUM_GAIN -4.56 dB
REM REPLAYGAIN_ALBUM_PEAK 0.964294
FILE "01 Twenty.flac" WAVE
TRACK 01 AUDIO
TITLE "Twenty"
SONGWRITER "Tyshawn Sorey"
REM REPLAYGAIN_TRACK_GAIN -5.44 dB
REM REPLAYGAIN_TRACK_PEAK 0.950287
INDEX 01 00:00:00
TRACK 02 AUDIO
TITLE "Eight"
SONGWRITER "Tyshawn Sorey"
REM REPLAYGAIN_TRACK_GAIN -2.86 dB
REM REPLAYGAIN_TRACK_PEAK 0.944214
INDEX 00 07:23:21
FILE "02 Eight.flac" WAVE
INDEX 01 00:00:00
TRACK 03 AUDIO
TITLE "Thirty-Five"
SONGWRITER "Tyshawn Sorey"
REM REPLAYGAIN_TRACK_GAIN -3.86 dB
REM REPLAYGAIN_TRACK_PEAK 0.946320
INDEX 00 03:38:17
FILE "03 Thirty-Five.flac" WAVE
INDEX 01 00:00:00
TRACK 04 AUDIO
TITLE "Eighteen"
SONGWRITER "Tyshawn Sorey"
REM REPLAYGAIN_TRACK_GAIN -2.92 dB
REM REPLAYGAIN_TRACK_PEAK 0.594604
INDEX 00 10:55:63
FILE "04 Eighteen.flac" WAVE
INDEX 01 00:00:00
TRACK 05 AUDIO
TITLE "Forty"
SONGWRITER "Tyshawn Sorey"
REM REPLAYGAIN_TRACK_GAIN -4.86 dB
REM REPLAYGAIN_TRACK_PEAK 0.964294
INDEX 00 04:48:11
FILE "05 Forty.flac" WAVE
INDEX 01 00:00:00
TRACK 06 AUDIO
TITLE "Twenty-Four"
SONGWRITER "Tyshawn Sorey"
REM REPLAYGAIN_TRACK_GAIN -3.64 dB
REM REPLAYGAIN_TRACK_PEAK 0.944183
INDEX 00 05:59:12
FILE "06 Twenty-Four.flac" WAVE
INDEX 01 00:00:00
TRACK 07 AUDIO
TITLE "Seventeen"
SONGWRITER "Tyshawn Sorey"
REM REPLAYGAIN_TRACK_GAIN -3.38 dB
REM REPLAYGAIN_TRACK_PEAK 0.962738
INDEX 00 06:51:50
FILE "07 Seventeen.flac" WAVE
INDEX 01 00:00:00
TRACK 08 AUDIO
TITLE "Twenty-Five"
SONGWRITER "Tyshawn Sorey"
REM REPLAYGAIN_TRACK_GAIN -0.25 dB
REM REPLAYGAIN_TRACK_PEAK 0.836121
INDEX 00 08:46:05
FILE "08 Twenty-Five.flac" WAVE
INDEX 01 00:00:00
TRACK 09 AUDIO
TITLE "Fifteen"
SONGWRITER "Tyshawn Sorey"
REM REPLAYGAIN_TRACK_GAIN -5.84 dB
REM REPLAYGAIN_TRACK_PEAK 0.953094
INDEX 00 08:56:48
FILE "09 Fifteen.flac" WAVE
INDEX 01 00:00:00
TRACK 10 AUDIO
TITLE "Thirty-Six"
SONGWRITER "Tyshawn Sorey"
REM REPLAYGAIN_TRACK_GAIN -2.09 dB
REM REPLAYGAIN_TRACK_PEAK 0.944061
INDEX 00 12:03:08
FILE "10 Thirty-Six.flac" WAVE
INDEX 01 00:00:00
 
.accurip
[CUETools log; Date: 08/06/14 21:08:28; Version: 2.1.4]
[AccurateRip ID: 001af256-00db2379-9f11f10a] found.
Track [ CRC | V2 ] Status
01 [dba8d504|b10fe034] (0+5/5) Accurately ripped
02 [4874f96c|f78334c7] (0+5/5) Accurately ripped
03 [168887a2|a39db463] (0+5/5) Accurately ripped
04 [147e49b0|deb012df] (0+5/5) Accurately ripped
05 [4423a9b0|08340606] (0+5/5) Accurately ripped
06 [78f3dec2|a84d36bf] (0+5/5) Accurately ripped
07 [55000c6a|edd2660b] (0+4/4) Accurately ripped
08 [b0fbcdff|ee2d1bca] (0+5/5) Accurately ripped
09 [68c82fa0|e57170df] (0+5/5) Accurately ripped
10 [161713c2|aa9d5791] (0+5/5) Accurately ripped
Track Peak [ CRC32 ] [W/O NULL]
-- 96.4 [A91487E4] [B03A13D4]
01 95.0 [394E3A1D] [8695EF26]
02 94.4 [75442D36] [46DE67C8]
03 94.6 [D3EC5C5F] [D61D3A91]
04 59.4 [20BD76C7] [50477A32]
05 96.4 [DF2DA688] [113E1D80]
06 94.4 [BD7ACBBB] [6FED70C5]
07 96.2 [0173B800] [F8C7DE9F]
08 83.6 [DDF787A4] [FA14653C]
09 95.3 [C6BD4C7C] [2352546E]
10 94.4 [B9322EA6] [DEC901A0]

http://www.discogs.com/Tyshawn-Sorey-Oblique-I/release/3149895
другие релизы
По всем вопросам пишите личное сообщение пользователю M0p94ok.
02:35
185
Нет комментариев. Ваш будет первым!