Вы используете незарегистрированную версию компонента "Вкладки"!

Поиск

(Free Jazz, Free Improvisation) [CD] Momentum Impakto (Daniel Erdmann, Kalle Kalima, John Schroder) - Hyva Bandi Livena - 2004, FLAC (tracks+.cue), lossless

(Free Jazz, Free Improvisation) [CD] Momentum Impakto (Daniel Erdmann, Kalle Kalima, John Schroder) - Hyva Bandi Livena - 2004, FLAC (tracks+.cue), lossless
Треклист:
Momentum Impakto / Hyvä Bändi Livenä
Жанр: Free Jazz, Free Improvisation
Носитель: CD
Страна-производитель диска (релиза): Germany
Год издания: 2004
Издатель (лейбл): Konnex Records
Номер по каталогу: KCD 5126
Аудиокодек: FLAC (*.flac)
Тип рипа: tracks+.cue
Битрейт аудио: lossless
Продолжительность: 73:50
Источник (релизер): cd
Наличие сканов в содержимом раздачи: нет
Треклист:
1. 1984 19:32
2. Balkanismus 5:32
3. Montignac Cold Turkey 8:38
4. Mr 18% 5:41
5. Duo 5:50
6. Hyvä Bändi 4:28
7. 7/01/1 6:25
8. Myllypuro-Nihö-Stöckheim 3:37
9. Motz 6:35
10. Der Verleich 7:28
 
Лог создания рипа
Exact Audio Copy V1.0 beta 3 from 29. August 2011
EAC extraction logfile from 28. August 2015, 18:34
Momentum Impakto / Hyva Bandi Livena
Used drive : ASUS DRW-24F1ST a Adapter: 0 ID: 0
Read mode : Secure
Utilize accurate stream : Yes
Defeat audio cache : Yes
Make use of C2 pointers : No
Read offset correction : 6
Overread into Lead-In and Lead-Out : No
Fill up missing offset samples with silence : Yes
Delete leading and trailing silent blocks : No
Null samples used in CRC calculations : Yes
Used interface : Native Win32 interface for Win NT & 2000
Gap handling : Appended to previous track
Used output format : User Defined Encoder
Selected bitrate : 320 kBit/s
Quality : High
Add ID3 tag : No
Command line compressor : D:\Programs\Exact Audio Copy\Flac\flac.exe
Additional command line options : -V -8 -T "Genre=%genre%" -T "Artist=%artist%" -T "Title=%title%" -T "Album=%albumtitle%" -T "Date=%year%" -T "Tracknumber=%tracknr%" -T "Comment=%comment%" %source%
TOC of the extracted CD
Track | Start | Length | Start sector | End sector
---------------------------------------------------------
1 | 0:00.00 | 19:32.59 | 0 | 87958
2 | 19:32.59 | 5:32.62 | 87959 | 112920
3 | 25:05.46 | 8:38.28 | 112921 | 151798
4 | 33:43.74 | 5:41.44 | 151799 | 177417
5 | 39:25.43 | 5:50.31 | 177418 | 203698
6 | 45:15.74 | 4:28.63 | 203699 | 223861
7 | 49:44.62 | 6:25.23 | 223862 | 252759
8 | 56:10.10 | 3:37.41 | 252760 | 269075
9 | 59:47.51 | 6:35.01 | 269076 | 298701
10 | 66:22.52 | 7:28.21 | 298702 | 332322
Track 1
Filename D:\EAC\01 1984.wav
Pre-gap length 0:00:02.00
Peak level 100.0 %
Extraction speed 6.1 X
Track quality 100.0 %
Test CRC 57C86FFF
Copy CRC 57C86FFF
Track not present in AccurateRip database
Copy OK
Track 2
Filename D:\EAC\02 Balkanismus.wav
Pre-gap length 0:00:02.00
Peak level 100.0 %
Extraction speed 6.9 X
Track quality 100.0 %
Test CRC 8685436E
Copy CRC 8685436E
Track not present in AccurateRip database
Copy OK
Track 3
Filename D:\EAC\03 Montignac Cold Turkey.wav
Peak level 100.0 %
Extraction speed 7.7 X
Track quality 100.0 %
Test CRC 71A6E68F
Copy CRC 71A6E68F
Track not present in AccurateRip database
Copy OK
Track 4
Filename D:\EAC\04 Mr 18%.wav
Pre-gap length 0:00:01.00
Peak level 100.0 %
Extraction speed 7.2 X
Track quality 99.9 %
Test CRC 9A2002D2
Copy CRC 9A2002D2
Track not present in AccurateRip database
Copy OK
Track 5
Filename D:\EAC\05 Duo.wav
Peak level 100.0 %
Extraction speed 8.2 X
Track quality 100.0 %
Test CRC 1D4E470A
Copy CRC 1D4E470A
Track not present in AccurateRip database
Copy OK
Track 6
Filename D:\EAC\06 Hyva Bandi.wav
Pre-gap length 0:00:01.00
Peak level 100.0 %
Extraction speed 8.3 X
Track quality 100.0 %
Test CRC 39E3F200
Copy CRC 39E3F200
Track not present in AccurateRip database
Copy OK
Track 7
Filename D:\EAC\07 7,01,1.wav
Peak level 100.0 %
Extraction speed 9.0 X
Track quality 100.0 %
Test CRC F9A71DED
Copy CRC F9A71DED
Track not present in AccurateRip database
Copy OK
Track 8
Filename D:\EAC\08 Myllypuro-Niho-Stockheim.wav
Pre-gap length 0:00:01.00
Peak level 100.0 %
Extraction speed 8.6 X
Track quality 100.0 %
Test CRC 7661B748
Copy CRC 7661B748
Track not present in AccurateRip database
Copy OK
Track 9
Filename D:\EAC\09 Motz.wav
Pre-gap length 0:00:03.00
Peak level 100.0 %
Extraction speed 9.5 X
Track quality 100.0 %
Test CRC 6CBED1D2
Copy CRC 6CBED1D2
Track not present in AccurateRip database
Copy OK
Track 10
Filename D:\EAC\10 Der Verleich.wav
Pre-gap length 0:00:02.00
Peak level 100.0 %
Extraction speed 10.0 X
Track quality 100.0 %
Test CRC A0C5D591
Copy CRC A0C5D591
Track not present in AccurateRip database
Copy OK
None of the tracks are present in the AccurateRip database
No errors occurred
End of status report
==== Log checksum 5F6125F480CA772869F9151E2CEC57BD42C7CAFD6C6F01E0D7E242C4E215481E ====
 
Содержание индексной карты (.CUE)
REM GENRE Jazz
REM DATE 2004
REM DISCID A1114E0A
REM COMMENT "ExactAudioCopy v1.0b3"
PERFORMER "Momentum Impakto"
TITLE "Hyva Bandi Livena"
FILE "01 1984.wav" WAVE
TRACK 01 AUDIO
TITLE "1984"
PERFORMER "Momentum Impakto"
INDEX 01 00:00:00
TRACK 02 AUDIO
TITLE "Balkanismus"
PERFORMER "Momentum Impakto"
INDEX 00 19:30:59
FILE "02 Balkanismus.wav" WAVE
INDEX 01 00:00:00
FILE "03 Montignac Cold Turkey.wav" WAVE
TRACK 03 AUDIO
TITLE "Montignac Cold Turkey"
PERFORMER "Momentum Impakto"
INDEX 01 00:00:00
TRACK 04 AUDIO
TITLE "Mr 18%"
PERFORMER "Momentum Impakto"
INDEX 00 08:37:28
FILE "04 Mr 18%.wav" WAVE
INDEX 01 00:00:00
FILE "05 Duo.wav" WAVE
TRACK 05 AUDIO
TITLE "Duo"
PERFORMER "Momentum Impakto"
INDEX 01 00:00:00
TRACK 06 AUDIO
TITLE "Hyva Bandi"
PERFORMER "Momentum Impakto"
INDEX 00 05:49:31
FILE "06 Hyva Bandi.wav" WAVE
INDEX 01 00:00:00
FILE "07 7,01,1.wav" WAVE
TRACK 07 AUDIO
TITLE "7/01/1"
PERFORMER "Momentum Impakto"
INDEX 01 00:00:00
TRACK 08 AUDIO
TITLE "Myllypuro-Niho-Stockheim"
PERFORMER "Momentum Impakto"
INDEX 00 06:24:23
FILE "08 Myllypuro-Niho-Stockheim.wav" WAVE
INDEX 01 00:00:00
TRACK 09 AUDIO
TITLE "Motz"
PERFORMER "Momentum Impakto"
INDEX 00 03:34:41
FILE "09 Motz.wav" WAVE
INDEX 01 00:00:00
TRACK 10 AUDIO
TITLE "Der Verleich"
PERFORMER "Momentum Impakto"
INDEX 00 06:33:01
FILE "10 Der Verleich.wav" WAVE
INDEX 01 00:00:00
Доп. информация: Recorded live in Kulturhaus mitte, Berlin, 17/10/02
 
Состав
Drums – John Schröder
Guitar – Kalle Kalima
Soprano Saxophone, Tenor Saxophone – Daniel Erdmann
По всем вопросам пишите личное сообщение пользователю M0p94ok.
15:22
164
Нет комментариев. Ваш будет первым!