Вы используете незарегистрированную версию компонента "Вкладки"!

Поиск

(Free Jazz, Contemporary Jazz) [CD] Momentum Impakto (Kalle Kalima, Daniel Erdmann, John Schroder) - Haw Haw - 1999, FLAC (tracks+.cue), lossless

(Free Jazz, Contemporary Jazz) [CD] Momentum Impakto (Kalle Kalima, Daniel Erdmann, John Schroder) - Haw Haw - 1999, FLAC (tracks+.cue), lossless
Треклист:
Momentum Impakto / Haw Haw
Жанр: Free Jazz, Contemporary Jazz
Носитель: CD
Страна-производитель диска (релиза): Germany
Год издания: 1999
Издатель (лейбл): Jazz4Ever Records
Номер по каталогу: J4E 4741
Аудиокодек: FLAC (*.flac)
Тип рипа: tracks+.cue
Битрейт аудио: lossless
Продолжительность: 63:43
Источник (релизер): cd
Наличие сканов в содержимом раздачи: нет
Треклист:
1. Monbijou park 6:49
2. Kainko 3:34
3. Noises outside 3:15
4. Ribs 9:28
5. Dingsbums 3:15
6. Fünfte stunde reli 1:52
7. Bitter moon 5:12
8. Angelhead 5:46
9. Walsdorff schule 4:43
10. Hiljaa hyva 2:57
11. Drugstore b. 2:03
12. Peter und der hrolf 0:50
13. Haw haw 9:10
14. Elenöör röödby 4:42
 
Лог создания рипа
Exact Audio Copy V1.0 beta 3 from 29. August 2011
EAC extraction logfile from 31. August 2015, 9:41
Momentum Impakto / Haw Haw
Used drive : ASUS DRW-24F1ST a Adapter: 0 ID: 0
Read mode : Secure
Utilize accurate stream : Yes
Defeat audio cache : Yes
Make use of C2 pointers : No
Read offset correction : 6
Overread into Lead-In and Lead-Out : No
Fill up missing offset samples with silence : Yes
Delete leading and trailing silent blocks : No
Null samples used in CRC calculations : Yes
Used interface : Native Win32 interface for Win NT & 2000
Gap handling : Appended to previous track
Used output format : User Defined Encoder
Selected bitrate : 320 kBit/s
Quality : High
Add ID3 tag : No
Command line compressor : D:\Programs\Exact Audio Copy\Flac\flac.exe
Additional command line options : -V -8 -T "Genre=%genre%" -T "Artist=%artist%" -T "Title=%title%" -T "Album=%albumtitle%" -T "Date=%year%" -T "Tracknumber=%tracknr%" -T "Comment=%comment%" %source%
TOC of the extracted CD
Track | Start | Length | Start sector | End sector
---------------------------------------------------------
1 | 0:00.00 | 6:49.33 | 0 | 30707
2 | 6:49.33 | 3:34.28 | 30708 | 46785
3 | 10:23.61 | 3:15.55 | 46786 | 61465
4 | 13:39.41 | 9:28.42 | 61466 | 104107
5 | 23:08.08 | 3:15.67 | 104108 | 118799
6 | 26:24.00 | 1:52.43 | 118800 | 127242
7 | 28:16.43 | 5:12.19 | 127243 | 150661
8 | 33:28.62 | 5:46.16 | 150662 | 176627
9 | 39:15.03 | 4:43.11 | 176628 | 197863
10 | 43:58.14 | 2:57.19 | 197864 | 211157
11 | 46:55.33 | 2:03.40 | 211158 | 220422
12 | 48:58.73 | 0:50.64 | 220423 | 224236
13 | 49:49.62 | 9:10.73 | 224237 | 265559
14 | 59:00.60 | 4:43.03 | 265560 | 286787
Track 1
Filename D:\EAC\01 monbijou park.wav
Pre-gap length 0:00:02.00
Peak level 93.8 %
Extraction speed 5.0 X
Track quality 100.0 %
Test CRC 7C2BE52C
Copy CRC 7C2BE52C
Track not present in AccurateRip database
Copy OK
Track 2
Filename D:\EAC\02 kainko.wav
Pre-gap length 0:00:02.30
Peak level 97.1 %
Extraction speed 5.1 X
Track quality 100.0 %
Test CRC 04CEDC7D
Copy CRC 04CEDC7D
Track not present in AccurateRip database
Copy OK
Track 3
Filename D:\EAC\03 noises outside.wav
Pre-gap length 0:00:03.61
Peak level 89.2 %
Extraction speed 5.4 X
Track quality 100.0 %
Test CRC A23FE0E0
Copy CRC A23FE0E0
Track not present in AccurateRip database
Copy OK
Track 4
Filename D:\EAC\04 ribs.wav
Pre-gap length 0:00:05.10
Peak level 97.1 %
Extraction speed 6.6 X
Track quality 100.0 %
Test CRC 764439FB
Copy CRC 764439FB
Track not present in AccurateRip database
Copy OK
Track 5
Filename D:\EAC\05 dingsbums.wav
Pre-gap length 0:00:02.09
Peak level 82.7 %
Extraction speed 5.5 X
Track quality 99.9 %
Test CRC 2D1C5E81
Copy CRC 2D1C5E81
Track not present in AccurateRip database
Copy OK
Track 6
Filename D:\EAC\06 funfte stunde reli.wav
Pre-gap length 0:00:01.07
Peak level 97.1 %
Extraction speed 4.6 X
Track quality 99.9 %
Test CRC FB5732D8
Copy CRC FB5732D8
Track not present in AccurateRip database
Copy OK
Track 7
Filename D:\EAC\07 bitter moon.wav
Pre-gap length 0:00:04.36
Peak level 97.1 %
Extraction speed 7.2 X
Track quality 100.0 %
Test CRC 6226F726
Copy CRC 6226F726
Track not present in AccurateRip database
Copy OK
Track 8
Filename D:\EAC\08 angelhead.wav
Pre-gap length 0:00:04.71
Peak level 97.1 %
Extraction speed 7.6 X
Track quality 100.0 %
Test CRC 04705B5D
Copy CRC 04705B5D
Track not present in AccurateRip database
Copy OK
Track 9
Filename D:\EAC\09 walsdorff-schule.wav
Pre-gap length 0:00:02.46
Peak level 97.1 %
Extraction speed 7.7 X
Track quality 100.0 %
Test CRC 472BBE28
Copy CRC 472BBE28
Track not present in AccurateRip database
Copy OK
Track 10
Filename D:\EAC\10 hiljaa hyva.wav
Pre-gap length 0:00:04.31
Peak level 56.0 %
Extraction speed 6.3 X
Track quality 99.9 %
Test CRC 4DB4AA94
Copy CRC 4DB4AA94
Track not present in AccurateRip database
Copy OK
Track 11
Filename D:\EAC\11 drugstore b..wav
Pre-gap length 0:00:01.32
Peak level 97.1 %
Extraction speed 6.9 X
Track quality 100.0 %
Test CRC 5ADD89B5
Copy CRC 5ADD89B5
Track not present in AccurateRip database
Copy OK
Track 12
Filename D:\EAC\12 peter und der hrolf.wav
Pre-gap length 0:00:03.16
Peak level 97.1 %
Extraction speed 5.2 X
Track quality 100.0 %
Test CRC 6CA9C222
Copy CRC 6CA9C222
Track not present in AccurateRip database
Copy OK
Track 13
Filename D:\EAC\13 haw haw.wav
Pre-gap length 0:00:02.42
Peak level 97.1 %
Extraction speed 9.0 X
Track quality 100.0 %
Test CRC 77A9DCF8
Copy CRC 77A9DCF8
Track not present in AccurateRip database
Copy OK
Track 14
Filename D:\EAC\14 elenoor roodby.wav
Pre-gap length 0:00:02.40
Peak level 97.1 %
Extraction speed 8.8 X
Track quality 100.0 %
Test CRC 36437168
Copy CRC 36437168
Track not present in AccurateRip database
Copy OK
None of the tracks are present in the AccurateRip database
No errors occurred
End of status report
==== Log checksum A0E3983CB5F7AB0866E86D34634FEA4CD0BA85A4CEECB2C23250E561C4660BB7 ====
 
Содержание индексной карты (.CUE)
REM GENRE Jazz
REM DATE 1999
REM DISCID BD0EEF0E
REM COMMENT "ExactAudioCopy v1.0b3"
PERFORMER "Momentum Impakto"
TITLE "Haw Haw"
FILE "01 monbijou park.wav" WAVE
TRACK 01 AUDIO
TITLE "monbijou park"
PERFORMER "Momentum Impakto"
INDEX 01 00:00:00
TRACK 02 AUDIO
TITLE "kainko"
PERFORMER "Momentum Impakto"
INDEX 00 06:47:03
FILE "02 kainko.wav" WAVE
INDEX 01 00:00:00
TRACK 03 AUDIO
TITLE "noises outside"
PERFORMER "Momentum Impakto"
INDEX 00 03:30:42
FILE "03 noises outside.wav" WAVE
INDEX 01 00:00:00
TRACK 04 AUDIO
TITLE "ribs"
PERFORMER "Momentum Impakto"
INDEX 00 03:10:45
FILE "04 ribs.wav" WAVE
INDEX 01 00:00:00
TRACK 05 AUDIO
TITLE "dingsbums"
PERFORMER "Momentum Impakto"
INDEX 00 09:26:33
FILE "05 dingsbums.wav" WAVE
INDEX 01 00:00:00
TRACK 06 AUDIO
TITLE "funfte stunde reli"
PERFORMER "Momentum Impakto"
INDEX 00 03:14:60
FILE "06 funfte stunde reli.wav" WAVE
INDEX 01 00:00:00
TRACK 07 AUDIO
TITLE "bitter moon"
PERFORMER "Momentum Impakto"
INDEX 00 01:48:07
FILE "07 bitter moon.wav" WAVE
INDEX 01 00:00:00
TRACK 08 AUDIO
TITLE "angelhead"
PERFORMER "Momentum Impakto"
INDEX 00 05:07:23
FILE "08 angelhead.wav" WAVE
INDEX 01 00:00:00
TRACK 09 AUDIO
TITLE "walsdorff-schule"
PERFORMER "Momentum Impakto"
INDEX 00 05:43:45
FILE "09 walsdorff-schule.wav" WAVE
INDEX 01 00:00:00
TRACK 10 AUDIO
TITLE "hiljaa hyva"
PERFORMER "Momentum Impakto"
INDEX 00 04:38:55
FILE "10 hiljaa hyva.wav" WAVE
INDEX 01 00:00:00
TRACK 11 AUDIO
TITLE "drugstore b."
PERFORMER "Momentum Impakto"
INDEX 00 02:55:62
FILE "11 drugstore b..wav" WAVE
INDEX 01 00:00:00
TRACK 12 AUDIO
TITLE "peter und der hrolf"
PERFORMER "Momentum Impakto"
INDEX 00 02:00:24
FILE "12 peter und der hrolf.wav" WAVE
INDEX 01 00:00:00
TRACK 13 AUDIO
TITLE "haw haw"
PERFORMER "Momentum Impakto"
INDEX 00 00:48:22
FILE "13 haw haw.wav" WAVE
INDEX 01 00:00:00
TRACK 14 AUDIO
TITLE "elenoor roodby"
PERFORMER "Momentum Impakto"
INDEX 00 09:08:33
FILE "14 elenoor roodby.wav" WAVE
INDEX 01 00:00:00
Доп. информация: Recorded (13.05.1999) and mastered (07.10.1999) at Vagnsson Tontudio, Hannover
 
Об альбоме (сборнике)
"... Haw Haw is a sort of free Jazz/Rock fusion that in the course of fourteen often-short tracks spins a web of well played performances relying on commercial viability as much as creative vision: The lead voice seems to be the electic guitarist, Kalle Kalima, whose roots dig into the crossover market with forceful wantonness. …"
(Cadence 8/2001)
 
Состав
Guitar – Kalle Kalima
Soprano Saxophone, Tenor Saxophone, Toy Saxophone – Daniel Erdmann
Drums – John Schröder
По всем вопросам пишите личное сообщение пользователю M0p94ok.
15:23
160
Нет комментариев. Ваш будет первым!